当前位置: 首页 >> 日韩电影 >> 残菊物语[中文字幕].The.Story.of.the.Last.Chrysanthemums.1939.1080p.FriDay.WEB-DL.H264.AAC 4.02GB >> 正文

残菊物语[中文字幕].The.Story.of.the.Last.Chrysanthemums.1939.1080p.FriDay.WEB-DL.H264.AAC 4.02GB

2021年10月24日 23:32:14     电影发布:来源于网络     电影分类:日韩电影     评论(0)    

残菊物语[中文字幕].The.Story.of.the.Last.Chrysanthemums.1939.1080p.FriDay.WEB DL.H264.AAC 4.02GB 剧情片 日韩电影  第1张

◎译 名 残菊物语 / The Story of the Last Chrysanthemums / Zangiku monogatari

◎片 名 殘菊物語

◎年 代 1939

◎产 地 日本

◎类 别 剧情

◎语 言 日语

◎上映日期 1939-10-10(日本)

◎IMDb链接 https://www.imdb.com/title/tt0032156/

◎豆瓣评分 8.5/10 (3394人评价)

◎豆瓣链接 https://movie.douban.com/subject/1293329/

◎片 长 142 分钟

◎导 演 沟口健二 Kenji Mizoguchi (id:1048273)

◎编 剧 川口松太郎 Matsutar? Kawaguchi (id:1109653)

依田义贤 Yoshikata Yoda (id:1287273)

◎演 员 花柳章太郎 Sh?tar? Hanayagi (id:1021875)

森赫子 Kakuko Mori (id:1348684)

高田浩吉 K?kichi Takada (id:1044546)

高松锦之助 Kinnosuke Takamatsu (id:1349556)

河原崎权十郎 Gonjur? Kawarazaki (id:1349730)

志贺迺家辨庆 Benkei Shiganoya (id:1349478)

结城一朗 Ichir? Y?ki (id:1348565)

花冈菊子 Kikuko Hanaoka (id:1339289)

伏见信子 Nobuko Fushimi (id:1322516)

富本民平 Minpei Tomimoto (id:1349557)

梅村蓉子 Y?ko Umemura (id:1345302)

矶野秋雄 Akio Isono (id:1339482)

花柳喜章 Yoshiaki Hanayagi (id:1337988)

中川芳江 Yoshie Nakagawa (id:1400756)

坂根田鶴子 Tazuko Sakane (id:1384315)

◎标 签 沟口健二 / 日本 / 日本电影 / 1939 / 1930s / 黑白 / 爱情 / 剧情

◎简 介

歌舞伎世家音羽屋第六代传人尾上菊之助(花柳章太郎 饰)苦恼万分,父亲菊五郎(河原崎権十郎 饰)对他的演艺功底大为不满,耻于称其为自己的传人;师兄弟和观众们也对他的评价颇差。然而这些人又都当面奉承,虚情假意。周围只有女佣阿德(森赫子 饰)敢于当面指出菊之助的不足,并真心希望他的表演能不断精进。阿德的诚实令菊之助大为感动,心中视其为难得的知己。

但他们的友情却遭到身边人的猜疑,阿德被辞退回家。伤心的菊之助四处寻找,并决心不顾世俗的眼光娶阿德为妻……

本片根据村松梢风同名小说改编,1939年电影旬报年度十佳评选第二名。

  1. ##### MediaInfo ######

  2. General

  3. Unique ID : 295115448009532419371886143516627190534 (0xDE052AF7625237F101C352E10A604306)

  4. Complete name : The.Story.of.[email protected]BBQDDQ.COM.mkv

  5. Format : Matroska

  6. Format version : Version 4

  7. File size : 4.02 GiB

  8. Duration : 2 h 22 min

  9. Overall bit rate : 4 029 kb/s

  10. Encoded date : UTC 2021-10-23 13:41:54

  11. Writing application : mkvmerge v56.1.0 ('My Friend') 64-bit

  12. Writing library : libebml v1.4.2 + libmatroska v1.6.4


  13. Video

  14. ID : 1

  15. Format : AVC

  16. Format/Info : Advanced Video Codec

  17. Format profile : [email protected]

  18. Format settings : CABAC / 1 Ref Frames

  19. Format settings, CABAC : Yes

  20. Format settings, Reference frames : 1 frame

  21. Format settings, GOP : M=1, N=60

  22. Codec ID : V_MPEG4/ISO/AVC

  23. Duration : 2 h 22 min

  24. Bit rate mode : Constant

  25. Bit rate : 4 000 kb/s

  26. Width : 1 920 pixels

  27. Height : 1 080 pixels

  28. Display aspect ratio : 16:9

  29. Frame rate mode : Constant

  30. Frame rate : 29.970 (30000/1001/53354) FPS

  31. Color space : YUV

  32. Chroma subsampling : 4:2:0

  33. Bit depth : 8 bits

  34. Scan type : Progressive

  35. Bits/(Pixel*Frame) : 0.064

  36. Stream size : 3.89 GiB (97%)

  37. Language : English

  38. Default : Yes

  39. Forced : No


  40. Audio

  41. ID : 2

  42. Format : AAC LC

  43. Format/Info : Advanced Audio Codec Low Complexity

  44. Codec ID : A_AAC-2

  45. Duration : 2 h 22 min

  46. Bit rate : 125 kb/s

  47. Channel(s) : 2 channels

  48. Channel layout : L R

  49. Sampling rate : 48.0 kHz

  50. Frame rate : 46.875 FPS (1024 SPF)

  51. Compression mode : Lossy

  52. Stream size : 128 MiB (3%)

  53. Title : Japanese

  54. Language : Japanese

  55. Default : Yes

  56. Forced : No


  57. Text #1

  58. ID : 3

  59. Format : UTF-8

  60. Codec ID : S_TEXT/UTF8

  61. Codec ID/Info : UTF-8 Plain Text

  62. Duration : 2 h 22 min

  63. Bit rate : 32 b/s

  64. Count of elements : 1280

  65. Stream size : 34.5 KiB (0%)

  66. Title : Chinese Simplified

  67. Language : Chinese

  68. Default : Yes

  69. Forced : No


  70. Text #2

  71. ID : 4

  72. Format : UTF-8

  73. Codec ID : S_TEXT/UTF8

  74. Codec ID/Info : UTF-8 Plain Text

  75. Duration : 2 h 22 min

  76. Bit rate : 32 b/s

  77. Count of elements : 1280

  78. Stream size : 34.5 KiB (0%)

  79. Title : Chinese Traditional

  80. Language : Chinese

  81. Default : No

  82. Forced : No




复制代码



文件下载


除非特别注明,本文『残菊物语[中文字幕].The.Story.of.the.Last.Chrysanthemums.1939.1080p.FriDay.WEB-DL.H264.AAC 4.02GB』来源于互联网机器人自动抓取,非本站原创。 浮游电影网不对本文拥有版权,如有侵犯,请联系邮箱:fuyouu#yandex.com[#换成@]投诉。我们会在15个工作日内删除。 但烦请转载时请标明出处:“本文转载于『浮游电影网』,原文地址:https://www.fuyouu.com/can-ju-wu-yu-zhong-wen-zi-mu-thestoryofthelastchrysanthemums19391080pfridaywebdlh264aac-402gb.html

评论吧骚年!

发表你的见解   

昵称*

E-mail*(建议输入,以便收到博主回复的提示邮件)

验证码*

您可以使用eMule或eMule Mod(Windows)、aMule(Win、Linux、Mac)等软件下载eD2k链接。。
eMule收藏集(.emulecollection)文件是您选中的所有链接的列表文件。eMule可以直接下载它们。
按住SHIFT键选择可以选中多个选择框。
可用文件名和大小选择器来选择文件。
文件名选择器帮您根据文件名称或后缀来选择文件。不分大小写。
符号使用:
和:空格( )、+
不包含:-
或:|
转义:一对英文引号("");
匹配开头:^
匹配结尾:$
例如:
选中所有名称中包含有“eMule”或“0.49c”字眼,但不包含有“exe”字眼的:emule|0.49c -exe
选中所有名称的开头是“eMule”,结尾是“0.49c”的:^emule 0.49c$
选中所有名称中带有“eMule 0.49c”的(必须是“eMule 0.49c”,中间没有别的字符,不能是“eMule fake 0.49c”),需要转义:"emule 0.49c"
大小选择器帮您根据文件大小选择文件。