当前位置: 首页 >> 海外电影 >> 地球上的星星[简繁英双语字幕].Like.Stars.on.Earth.2007.BluRay.1080p.DTS-HD.MA5.1.x265.10bit-ALT 15.54GB >> 正文

地球上的星星[简繁英双语字幕].Like.Stars.on.Earth.2007.BluRay.1080p.DTS-HD.MA5.1.x265.10bit-ALT 15.54GB

2023年01月06日 08:37:50     电影发布:来源于网络     电影分类:海外电影     评论(0)    

◎标 题 地球上的星星

◎译 名 心中的小星星(台) / 每一个孩子都是特别的 / तारे ज़मीन पर / Like Stars on Earth

◎片 名 Taare Zameen Par

◎年 代 2007

◎产 地 印度

◎类 别 剧情 / 家庭 / 儿童

◎语 言 印地语 / 英语

◎上映日期 2007-12-21(印度)

◎IMDb评分 8.4/10 (194722人评价)

◎IMDb链接 https://www.imdb.com/title/tt0986264/

◎豆瓣评分 8.9/10 (196906人评价)

◎豆瓣链接 https://movie.douban.com/subject/2363506/

◎片 长 165分钟

◎导 演 阿米尔·汗 Aamir Khan

◎编 剧 阿莫尔·古普特 Amole Gupte

◎演 员 达席尔·萨法瑞 Darsheel Safary

阿米尔·汗 Aamir Khan

塔奈·切赫达 Tanay Chheda

萨谢·英吉尼尔 Sachet Engineer

蒂丝卡·乔普拉 Tisca Chopra

维品·沙尔马 Vipin Sharma

拉利塔·拉伊米 Lalitha Lajmi

吉里贾·奥克 Girija Oak

拉维·汗维尔卡尔 Ravi Khanvilkar

普拉蒂玛·库尔卡尼 Pratima Kulkarni

梅娜·马里克 Meghna Malik

索纳利·萨查德夫 Sonali Sachdev

桑贾伊·达迪克 Sanjay Dadich

拉加·戈帕尔·耶尔 Raaj Gopal Iyer

布格斯·巴尔加瓦 Bugs Bhargava

尚卡尔·萨查德夫 Shankar Sachdev

M·K·拉伊纳 M.K. Raina

阿布舍克·巴强 Abhishek Bachchan

洛伊·门多萨 Loy Mendonsa

尚卡尔·马汉德文 Shankar Mahadevan

埃萨恩·诺雷尼 Ehsaan Noorani

罗汉·德赛 Rohan Desai

潘卡杰·哈德波尔 Pankaj Khandpur

谢丽·沃德 Sherry Bharda

◎简 介

对于8岁的男孩伊夏(达席尔·萨法瑞 Darsheel Safary 饰)来说,世界是充满了惊奇和快乐的万花筒,他正在用一切他能够想到的方式和这个陌生的世界进行着交流,同时也充分的享受着大地万物慷慨的赠与。可是,这样的伊夏却是成年人眼中的问题儿童,他的成绩不好,在班上的排名靠后, 脑子里还充满了各种匪夷所思的鬼点子,在又一次闯下大祸后,忍无可忍的父母将他送往了寄宿学校。

虽然伊夏的新生活并没有什么改变,但在内心里,和父母分离的生活让他感到闷闷不乐,这时,一位名叫尼克(阿米尔·汗 Aamir Khan 饰)的美术老师走进了他的生活。和以往所见到的固守成规的老师不同,尼克主张让学生们保留自己的个性和思想,自由的发展。在和尼克相处的日子里,伊夏和尼克都慢慢的成熟了起来。

  1. ##### MediaInfo ######

  2. General

  3. Unique ID : 231518824187566487918280666077666904918 (0xAE2CE75396C3F7A0BBBD257DB4CE8B56)

  4. Complete name : Like.Stars.on.Earth.2007.BluRay.1080p.DTS-HD.MA5.1.x265.10bit-ALT.mkv

  5. Format : Matroska

  6. Format version : Version 4

  7. File size : 15.5 GiB

  8. Duration : 2 h 42 min

  9. Overall bit rate mode : Variable

  10. Overall bit rate : 13.7 Mb/s

  11. Encoded date : UTC 2023-01-05 08:57:30

  12. Writing application : mkvmerge v49.0.0 ('Sick Of Losing Soulmates') 64-bit

  13. Writing library : libebml v1.4.0 + libmatroska v1.6.1


  14. Video

  15. ID : 1

  16. Format : HEVC

  17. Format/Info : High Efficiency Video Coding

  18. Format profile : Main [email protected]@High

  19. Codec ID : V_MPEGH/ISO/HEVC

  20. Duration : 2 h 42 min

  21. Bit rate : 11.5 Mb/s

  22. Width : 1 920 pixels

  23. Height : 816 pixels

  24. Display aspect ratio : 2.35:1

  25. Frame rate mode : Constant

  26. Frame rate : 23.976 (24000/1001) FPS

  27. Color space : YUV

  28. Chroma subsampling : 4:2:0

  29. Bit depth : 10 bits

  30. Bits/(Pixel*Frame) : 0.307

  31. Stream size : 13.1 GiB (84%)

  32. Title : HEVC, [email protected]@High, 241.001 fps @ 11539 kbps

  33. Writing library : x265 3.5+40-6064f96a6:[Windows][GCC 12.2.0][64 bit] 10bit

  34. Encoding settings : cpuid=1049583 / frame-threads=2 / numa-pools=4 / wpp / no-pmode / no-pme / no-psnr / no-ssim / log-level=2 / input-csp=1 / input-res=1920x816 / interlace=0 / total-frames=233834 / level-idc=51 / high-tier=1 / uhd-bd=0 / ref=5 / no-allow-non-conformance / no-repeat-headers / annexb / no-aud / no-eob / no-eos / no-hrd / info / hash=0 / no-temporal-layers / open-gop / min-keyint=24 / keyint=240 / gop-lookahead=0 / bframes=6 / b-adapt=2 / b-pyramid / bframe-bias=0 / rc-lookahead=40 / lookahead-slices=0 / scenecut=40 / no-hist-scenecut / radl=0 / no-splice / no-intra-refresh / ctu=32 / min-cu-size=8 / no-rect / no-amp / max-tu-size=32 / tu-inter-depth=3 / tu-intra-depth=3 / limit-tu=4 / rdoq-level=2 / dynamic-rd=0.00 / no-ssim-rd / signhide / no-tskip / nr-intra=0 / nr-inter=0 / no-constrained-intra / no-strong-intra-smoothing / max-merge=4 / limit-refs=1 / limit-modes / me=3 / subme=4 / merange=25 / temporal-mvp / no-frame-dup / no-hme / weightp / weightb / no-analyze-src-pics / deblock=-3:-3 / no-sao / no-sao-non-deblock / rd=6 / selective-sao=0 / no-early-skip / rskip / no-fast-intra / no-tskip-fast / no-cu-lossless / b-intra / no-splitrd-skip / rdpenalty=0 / psy-rd=2.00 / psy-rdoq=1.00 / no-rd-refine / no-lossless / cbqpoffs=-2 / crqpoffs=-2 / rc=crf / crf=18.5 / qcomp=0.65 / qpstep=4 / stats-write=0 / stats-read=0 / vbv-maxrate=80000 / vbv-bufsize=80000 / vbv-init=0.9 / min-vbv-fullness=50.0 / max-vbv-fullness=80.0 / crf-max=0.0 / crf-min=0.0 / ipratio=1.40 / pbratio=1.30 / aq-mode=2 / aq-strength=0.85 / cutree / zone-count=0 / no-strict-cbr / qg-size=32 / no-rc-grain / qpmax=69 / qpmin=0 / no-const-vbv / sar=1 / overscan=0 / videoformat=5 / range=0 / colorprim=1 / transfer=1 / colormatrix=1 / chromaloc=0 / display-window=0 / cll=0,0 / min-luma=0 / max-luma=1023 / log2-max-poc-lsb=8 / vui-timing-info / vui-hrd-info / slices=1 / no-opt-qp-pps / no-opt-ref-list-length-pps / no-multi-pass-opt-rps / scenecut-bias=0.05 / hist-threshold=0.03 / no-opt-cu-delta-qp / no-aq-motion / no-hdr10 / no-hdr10-opt / no-dhdr10-opt / no-idr-recovery-sei / analysis-reuse-level=0 / analysis-save-reuse-level=0 / analysis-load-reuse-level=0 / scale-factor=0 / refine-intra=0 / refine-inter=0 / refine-mv=1 / refine-ctu-distortion=0 / no-limit-sao / ctu-info=0 / no-lowpass-dct / refine-analysis-type=0 / copy-pic=1 / max-ausize-factor=1.0 / no-dynamic-refine / no-single-sei / no-hevc-aq / no-svt / no-field / qp-adaptation-range=1.00 / scenecut-aware-qp=0conformance-window-offsets / right=0 / bottom=0 / decoder-max-rate=0 / no-vbv-live-multi-pass

  35. Language : English

  36. Default : Yes

  37. Forced : No

  38. Color range : Limited

  39. Color primaries : BT.709

  40. Transfer characteristics : BT.709

  41. Matrix coefficients : BT.709


  42. Audio

  43. ID : 2

  44. Format : DTS XLL

  45. Format/Info : Digital Theater Systems

  46. Commercial name : DTS-HD Master Audio

  47. Codec ID : A_DTS

  48. Duration : 2 h 42 min

  49. Bit rate mode : Variable

  50. Bit rate : 2 022 kb/s

  51. Channel(s) : 6 channels

  52. Channel layout : C L R Ls Rs LFE

  53. Sampling rate : 48.0 kHz

  54. Frame rate : 93.750 FPS (512 SPF)

  55. Bit depth : 16 bits

  56. Compression mode : Lossless

  57. Stream size : 2.30 GiB (15%)

  58. Title : Hindi DTS-HD Master Audio 5.1 @ 2022 kbps

  59. Language : Hindi

  60. Default : Yes

  61. Forced : No


  62. Text #1

  63. ID : 3

  64. Format : PGS

  65. Codec ID : S_HDMV/PGS

  66. Codec ID/Info : Picture based subtitle format used on BDs/HD-DVDs

  67. Duration : 2 h 32 min

  68. Bit rate : 27.5 kb/s

  69. Count of elements : 2662

  70. Stream size : 30.1 MiB (0%)

  71. Title : Eng/SUP

  72. Language : English

  73. Default : No

  74. Forced : No


  75. Text #2

  76. ID : 4

  77. Format : PGS

  78. Codec ID : S_HDMV/PGS

  79. Codec ID/Info : Picture based subtitle format used on BDs/HD-DVDs

  80. Duration : 2 h 33 min

  81. Bit rate : 16.7 kb/s

  82. Count of elements : 2865

  83. Stream size : 18.4 MiB (0%)

  84. Title : Chs/SUP 简体

  85. Language : Chinese

  86. Default : Yes

  87. Forced : No


  88. Text #3

  89. ID : 5

  90. Format : PGS

  91. Codec ID : S_HDMV/PGS

  92. Codec ID/Info : Picture based subtitle format used on BDs/HD-DVDs

  93. Duration : 2 h 33 min

  94. Bit rate : 18.1 kb/s

  95. Count of elements : 2865

  96. Stream size : 19.9 MiB (0%)

  97. Title : Cht/SUP 繁体

  98. Language : Chinese

  99. Default : No

  100. Forced : No


  101. Text #4

  102. ID : 6

  103. Format : PGS

  104. Codec ID : S_HDMV/PGS

  105. Codec ID/Info : Picture based subtitle format used on BDs/HD-DVDs

  106. Duration : 2 h 33 min

  107. Bit rate : 32.5 kb/s

  108. Count of elements : 2867

  109. Stream size : 35.7 MiB (0%)

  110. Title : Chs/SUP 简英双语

  111. Language : Chinese

  112. Default : No

  113. Forced : No


  114. Text #5

  115. ID : 7

  116. Format : PGS

  117. Codec ID : S_HDMV/PGS

  118. Codec ID/Info : Picture based subtitle format used on BDs/HD-DVDs

  119. Duration : 2 h 33 min

  120. Bit rate : 32.1 kb/s

  121. Count of elements : 2868

  122. Stream size : 35.3 MiB (0%)

  123. Title : Cht/SUP 繁英双语

  124. Language : Chinese

  125. Default : No

  126. Forced : No


  127. Menu

  128. 00:00:00.000 : en:第 01 章

  129. 00:08:25.505 : en:第 02 章

  130. 00:17:52.071 : en:第 03 章

  131. 00:21:15.483 : en:第 04 章

  132. 00:27:19.054 : en:第 05 章

  133. 00:33:32.636 : en:第 06 章

  134. 00:37:13.565 : en:第 07 章

  135. 00:40:24.881 : en:第 08 章

  136. 00:46:47.388 : en:第 09 章

  137. 00:51:18.826 : en:第 10 章

  138. 00:57:10.427 : en:第 11 章

  139. 01:03:05.073 : en:第 12 章

  140. 01:06:05.795 : en:第 13 章

  141. 01:11:13.352 : en:第 14 章

  142. 01:17:27.142 : en:第 15 章

  143. 01:25:32.169 : en:第 16 章

  144. 01:30:46.441 : en:第 17 章

  145. 01:38:59.809 : en:第 18 章

  146. 01:47:29.151 : en:第 19 章

  147. 01:49:12.504 : en:第 20 章

  148. 01:56:24.352 : en:第 21 章

  149. 02:03:04.711 : en:第 22 章

  150. 02:06:57.318 : en:第 23 章

  151. 02:11:37.890 : en:第 24 章

  152. 02:19:06.338 : en:第 25 章

  153. 02:26:09.386 : en:第 26 章

  154. 02:31:22.073 : en:第 27 章

  155. 02:35:36.994 : en:第 28 章


复制代码



文件下载


除非特别注明,本文『地球上的星星[简繁英双语字幕].Like.Stars.on.Earth.2007.BluRay.1080p.DTS-HD.MA5.1.x265.10bit-ALT 15.54GB』来源于互联网机器人自动抓取,非本站原创。 浮游电影网不对本文拥有版权,如有侵犯,请联系邮箱:fuyouu#yandex.com[#换成@]投诉。我们会在15个工作日内删除。 但烦请转载时请标明出处:“本文转载于『浮游电影网』,原文地址:https://www.fuyouu.com/22994.html

评论吧骚年!

发表你的见解   

昵称*

E-mail*(建议输入,以便收到博主回复的提示邮件)

验证码*

您可以使用eMule或eMule Mod(Windows)、aMule(Win、Linux、Mac)等软件下载eD2k链接。。
eMule收藏集(.emulecollection)文件是您选中的所有链接的列表文件。eMule可以直接下载它们。
按住SHIFT键选择可以选中多个选择框。
可用文件名和大小选择器来选择文件。
文件名选择器帮您根据文件名称或后缀来选择文件。不分大小写。
符号使用:
和:空格( )、+
不包含:-
或:|
转义:一对英文引号("");
匹配开头:^
匹配结尾:$
例如:
选中所有名称中包含有“eMule”或“0.49c”字眼,但不包含有“exe”字眼的:emule|0.49c -exe
选中所有名称的开头是“eMule”,结尾是“0.49c”的:^emule 0.49c$
选中所有名称中带有“eMule 0.49c”的(必须是“eMule 0.49c”,中间没有别的字符,不能是“eMule fake 0.49c”),需要转义:"emule 0.49c"
大小选择器帮您根据文件大小选择文件。