当前位置: 首页 >> 日韩电影 >> 王者天下2[简繁字幕].Kingdom.2.Far.and.Away.2022.1080p.BluRay.x265.10bit-CTRLHD 5.46GB >> 正文

王者天下2[简繁字幕].Kingdom.2.Far.and.Away.2022.1080p.BluRay.x265.10bit-CTRLHD 5.46GB

2023年01月06日 08:37:16     电影发布:来源于网络     电影分类:日韩电影     评论(0)    

◎标 题 王者天下2

◎译 名 王者天下2:向着遥远的大地 / Kingdom 2 / Kingdom 2: To the Far Land

◎片 名 キングダム2 遥かなる大地へ

◎年 代 2022

◎产 地 日本

◎类 别 动作 / 历史 / 战争 / 冒险

◎语 言 日语

◎上映日期 2022-07-15(日本)

◎IMDb评分 7.3/10 (122人评价)

◎IMDb链接 https://www.imdb.com/title/tt12415670/

◎豆瓣评分 6.7/10 (696人评价)

◎豆瓣链接 https://movie.douban.com/subject/34438328/

◎片 长 134分钟

◎导 演 佐藤信介 Shinsuke Sato

◎编 剧 原泰久 Yasuhisa Hara

黑岩勉 Tsutomu Kuroiwa

◎演 员 山崎贤人 Kento Yamazaki

吉泽亮 Yoshizawa Ryo

桥本环奈 Kanna Hashimoto

大泽隆夫 Takao Ôsawa

清野菜名 Nana Seino

冈山天音 Okayama Amane

三浦贵大 Takahiro Miura

滨津隆之 Takayuki Hamatsu

平山祐介 Yusuke Hirayama

玉木宏 Hiroshi Tamaki

佐藤浩市 Kôichi Satô

丰川悦司 Etsushi Toyokawa

高桥努 Tsutomu Takahashi

小泽征悦 Yukiyoshi Ozawa

涩川清彦 Kiyohiko Shibukawa

石田佳央 Ishida Yoshihisa

◎简 介

山崎贤人、吉泽亮、长泽雅美、桥本环奈主演的漫改真人电影《王者天下》确定将推出续集!导演佐藤信介将携原班卡司回归,漫画原作者原泰久参与剧本创作。

  1. ##### MediaInfo ######

  2. General

  3. Unique ID : 287281166100277100417196317863727990191 (0xD820570BE28F4CF522974DB687F605AF)

  4. Complete name : Kingdom.2.Far.and.Away.2022.1080p.BluRay.x265.10bit-CTRLHD.mkv

  5. Format : Matroska

  6. Format version : Version 4

  7. File size : 5.46 GiB

  8. Duration : 2 h 13 min

  9. Overall bit rate : 5 862 kb/s

  10. Movie name : Kingdom 2: Far and Away

  11. Encoded date : UTC 2023-01-04 14:17:19

  12. Writing application : mkvmerge v73.0.0 ('25 or 6 to 4') 64-bit

  13. Writing library : libebml v1.4.4 + libmatroska v1.7.1

  14. Attachments : HYXiuYingF.ttf / 华康华综体.ttf


  15. Video

  16. ID : 1

  17. Format : HEVC

  18. Format/Info : High Efficiency Video Coding

  19. Format profile : Main [email protected]@Main

  20. Codec ID : V_MPEGH/ISO/HEVC

  21. Duration : 2 h 13 min

  22. Bit rate : 5 211 kb/s

  23. Width : 1 920 pixels

  24. Height : 804 pixels

  25. Display aspect ratio : 2.40:1

  26. Frame rate mode : Constant

  27. Frame rate : 23.976 (24000/1001) FPS

  28. Color space : YUV

  29. Chroma subsampling : 4:2:0

  30. Bit depth : 10 bits

  31. Bits/(Pixel*Frame) : 0.141

  32. Stream size : 4.85 GiB (89%)

  33. Title : Jubowo @ WiKi

  34. Language : Japanese

  35. Default : Yes

  36. Forced : No


  37. Audio

  38. ID : 2

  39. Format : AC-3

  40. Format/Info : Audio Coding 3

  41. Commercial name : Dolby Digital

  42. Codec ID : A_AC3

  43. Duration : 2 h 13 min

  44. Bit rate mode : Constant

  45. Bit rate : 640 kb/s

  46. Channel(s) : 6 channels

  47. Channel layout : L R C LFE Ls Rs

  48. Sampling rate : 48.0 kHz

  49. Frame rate : 31.250 FPS (1536 SPF)

  50. Compression mode : Lossy

  51. Stream size : 610 MiB (11%)

  52. Language : Japanese

  53. Service kind : Complete Main

  54. Default : Yes

  55. Forced : No


  56. Text #1

  57. ID : 3

  58. Format : ASS

  59. Codec ID : S_TEXT/ASS

  60. Codec ID/Info : Advanced Sub Station Alpha

  61. Duration : 2 h 12 min

  62. Bit rate : 63 b/s

  63. Count of elements : 1251

  64. Compression mode : Lossless

  65. Stream size : 61.4 KiB (0%)

  66. Title : 简体

  67. Language : Chinese

  68. Default : No

  69. Forced : No


  70. Text #2

  71. ID : 4

  72. Format : ASS

  73. Codec ID : S_TEXT/ASS

  74. Codec ID/Info : Advanced Sub Station Alpha

  75. Duration : 2 h 12 min

  76. Bit rate : 63 b/s

  77. Count of elements : 1251

  78. Compression mode : Lossless

  79. Stream size : 61.4 KiB (0%)

  80. Title : 繁體

  81. Language : Chinese

  82. Default : Yes

  83. Forced : No


  84. Menu

  85. 00:00:00.000 : en:Chapter 01

  86. 00:08:26.339 : en:Chapter 02

  87. 00:14:42.423 : en:Chapter 03

  88. 00:22:35.771 : en:Chapter 04

  89. 00:34:13.093 : en:Chapter 05

  90. 00:43:17.845 : en:Chapter 06

  91. 00:49:53.282 : en:Chapter 07

  92. 00:55:39.753 : en:Chapter 08

  93. 01:04:38.083 : en:Chapter 09

  94. 01:15:25.730 : en:Chapter 10

  95. 01:25:43.138 : en:Chapter 11

  96. 01:35:41.361 : en:Chapter 12

  97. 01:46:02.064 : en:Chapter 13

  98. 01:56:32.903 : en:Chapter 14

  99. 02:02:35.974 : en:Chapter 15

  100. 02:07:33.020 : en:Chapter 16


复制代码




文件下载


除非特别注明,本文『王者天下2[简繁字幕].Kingdom.2.Far.and.Away.2022.1080p.BluRay.x265.10bit-CTRLHD 5.46GB』来源于互联网机器人自动抓取,非本站原创。 浮游电影网不对本文拥有版权,如有侵犯,请联系邮箱:fuyouu#yandex.com[#换成@]投诉。我们会在15个工作日内删除。 但烦请转载时请标明出处:“本文转载于『浮游电影网』,原文地址:https://www.fuyouu.com/22993.html

评论吧骚年!

发表你的见解   

昵称*

E-mail*(建议输入,以便收到博主回复的提示邮件)

验证码*

您可以使用eMule或eMule Mod(Windows)、aMule(Win、Linux、Mac)等软件下载eD2k链接。。
eMule收藏集(.emulecollection)文件是您选中的所有链接的列表文件。eMule可以直接下载它们。
按住SHIFT键选择可以选中多个选择框。
可用文件名和大小选择器来选择文件。
文件名选择器帮您根据文件名称或后缀来选择文件。不分大小写。
符号使用:
和:空格( )、+
不包含:-
或:|
转义:一对英文引号("");
匹配开头:^
匹配结尾:$
例如:
选中所有名称中包含有“eMule”或“0.49c”字眼,但不包含有“exe”字眼的:emule|0.49c -exe
选中所有名称的开头是“eMule”,结尾是“0.49c”的:^emule 0.49c$
选中所有名称中带有“eMule 0.49c”的(必须是“eMule 0.49c”,中间没有别的字符,不能是“eMule fake 0.49c”),需要转义:"emule 0.49c"
大小选择器帮您根据文件大小选择文件。