当前位置: 首页 >> 欧美电影 >> 续命之徒:绝命毒师电影[杜比视界版本][简繁英字幕].El.Camino.A.Breaking.Bad.Movie.2019.2160p.NF.WEB-DL.DDP.5.1.Atmos.DV.H.26 >> 正文

续命之徒:绝命毒师电影[杜比视界版本][简繁英字幕].El.Camino.A.Breaking.Bad.Movie.2019.2160p.NF.WEB-DL.DDP.5.1.Atmos.DV.H.26

2023年01月06日 08:33:19     电影发布:来源于网络     电影分类:欧美电影     评论(0)    

续命之徒:绝命毒师电影[杜比视界版本][简繁英字幕].El.Camino.A.Breaking.Bad.Movie.2019.2160p.NF.WEB-DL.DDP.5.1.Atmos.DV.H.265-DreamHD 15.95GB

◎标 题 续命之徒:绝命毒师电影

◎译 名 绝命毒师电影:续命之徒 / 格林布莱尔 / Greenbriar

◎片 名 El Camino: A Breaking Bad Movie

◎年 代 2019

◎产 地 美国

◎类 别 剧情 / 惊悚 / 犯罪

◎语 言 英语

◎上映日期 2019-10-11(美国)

◎IMDb评分 7.3/10 (253077人评价)

◎IMDb链接 https://www.imdb.com/title/tt9243946/

◎豆瓣评分 8.0/10 (77447人评价)

◎豆瓣链接 https://movie.douban.com/subject/30372377/

◎片 长 122分钟

◎导 演 文斯·吉里根 Vince Gilligan

◎编 剧 文斯·吉里根 Vince Gilligan

◎演 员 亚伦·保尔 Aaron Paul

乔纳森·班克斯 Jonathan Banks

马特·琼斯 Matt Jones

查尔斯·贝克 Charles Baker

托德·特里 Todd Terry

朱莉·珀尔 Julie Pearl

格雷戈里·史蒂文·索里兹 Gregory Steven Soliz

拉里·哈金 Larry Hankin

杰西·普莱蒙 Jesse Plemons

汤姆·鲍尔 Tom Bower

格洛里亚·桑多瓦尔 Gloria Sandoval

泰丝·哈珀 Tess Harper

迈克尔·博夫舍维尔 Michael Bofshever

丹妮尔·托德斯科 Danielle Todesco

斯科特·麦克阿瑟 Scott MacArthur

斯科特· 谢泼德 Scott Shepherd

玛拉·吉布斯 Marla Gibbs

罗伯特·福斯特 Robert Forster

布兰登·萨克斯顿 Brendan Sexton III

戴维·马特 David Mattey

凯文·兰金 Kevin Rankin

布莱恩·科兰斯顿 Bryan Cranston

约翰尼·奥蒂斯 Johnny Ortiz

克里斯滕·里特 Krysten Ritter

科迪·蕾尼·卡梅伦 Cody Renee Cameron

戴夫·波特 Dave Porter

Marshall Adams Marshall Adams

斯吉普·麦克唐纳德 Skip MacDonald

朱迪·瑞 Judy Rhee

Louise Frogley Louise Frogley

◎简 介

Netflix 电视内容《续命之徒:绝命毒师电影》回归,主角杰西·平克曼(艾美奖得主亚伦·保尔饰演)再次与粉丝见面。杰西戏剧性地逃出囚禁后,他必须接受自己的过去,才有可能创造未来。这部扣人心弦的惊悚片由《绝命毒师》的创剧人文斯·吉里根编写和执导。该电影由马克·约翰逊、梅利莎·伯恩斯坦、查尔斯·纽沃斯、黛安娜·默瑟和亚伦·保尔以及 Sony Pictures Television 联合制作。

  1. ##### MediaInfo ######

  2. General

  3. Complete name : El.Camino.A.Breaking.Bad.Movie.2019.2160p.NF.WEB-DL.DDP.5.1.Atmos.DV.H.265-DreamHD.mp4

  4. Format : MPEG-4

  5. Format profile : Base Media

  6. Codec ID : isom (isom)

  7. File size : 15.9 GiB

  8. Duration : 2 h 2 min

  9. Overall bit rate mode : Variable

  10. Overall bit rate : 18.6 Mb/s

  11. Encoded date : UTC 2023-01-04 06:08:47

  12. Tagged date : UTC 2023-01-04 06:08:47

  13. Writing application : GPAC-2.0-rev0-g418db414-master


  14. Video

  15. ID : 1

  16. Format : HEVC

  17. Format/Info : High Efficiency Video Coding

  18. Format profile : Main [email protected]@Main

  19. HDR format : Dolby Vision, Version 1.0, dvhe.05.06, BL+RPU

  20. Codec ID : dvhe

  21. Codec ID/Info : High Efficiency Video Coding with Dolby Vision

  22. Duration : 2 h 2 min

  23. Bit rate : 17.8 Mb/s

  24. Width : 3 840 pixels

  25. Height : 2 160 pixels

  26. Display aspect ratio : 16:9

  27. Frame rate mode : Constant

  28. Frame rate : 24.000 FPS

  29. Color space : YUV

  30. Chroma subsampling : 4:2:0

  31. Bit depth : 10 bits

  32. Bits/(Pixel*Frame) : 0.090

  33. Stream size : 15.3 GiB (96%)

  34. Default : No

  35. Encoded date : UTC 2023-01-04 05:57:03

  36. Tagged date : UTC 2023-01-04 06:10:07

  37. Color range : Full

  38. mdhd_Duration : 7362416

  39. Codec configuration box : hvcC+dvcC


  40. Audio

  41. ID : 2

  42. Format : E-AC-3 JOC

  43. Format/Info : Enhanced AC-3 with Joint Object Coding

  44. Commercial name : Dolby Digital Plus with Dolby Atmos

  45. Codec ID : ec-3

  46. Duration : 2 h 2 min

  47. Bit rate mode : Constant

  48. Bit rate : 768 kb/s

  49. Maximum bit rate : 811 kb/s

  50. Channel(s) : 6 channels

  51. Channel layout : L R C LFE Ls Rs

  52. Sampling rate : 48.0 kHz

  53. Frame rate : 31.250 FPS (1536 SPF)

  54. Compression mode : Lossy

  55. Stream size : 674 MiB (4%)

  56. Language : English

  57. Service kind : Complete Main

  58. Default : Yes

  59. Alternate group : 1

  60. Encoded date : UTC 2021-09-30 02:04:46

  61. Tagged date : UTC 2023-01-04 06:10:07

  62. Complexity index : Not present / 16

  63. Number of dynamic objects : 15

  64. Bed channel count : 1 channel

  65. Bed channel configuration : LFE


  66. Text #1

  67. ID : 3

  68. Format : Timed Text

  69. Codec ID : tx3g

  70. Duration : 2 h 1 min

  71. Bit rate mode : Variable

  72. Bit rate : 56 b/s

  73. Stream size : 50.0 KiB (0%)

  74. Title : SDH

  75. Language : English

  76. Forced : No

  77. Encoded date : UTC 2023-01-04 06:10:03

  78. Tagged date : UTC 2023-01-04 06:10:07


  79. Text #2

  80. ID : 4

  81. Format : Timed Text

  82. Codec ID : tx3g

  83. Duration : 2 h 2 min

  84. Bit rate mode : Variable

  85. Bit rate : 45 b/s

  86. Stream size : 40.0 KiB (0%)

  87. Title : Simplified

  88. Language : Chinese

  89. Forced : No

  90. Encoded date : UTC 2023-01-04 06:10:03

  91. Tagged date : UTC 2023-01-04 06:10:07


  92. Text #3

  93. ID : 5

  94. Format : Timed Text

  95. Codec ID : tx3g

  96. Duration : 2 h 2 min

  97. Bit rate mode : Variable

  98. Bit rate : 40 b/s

  99. Stream size : 35.4 KiB (0%)

  100. Title : Traditional

  101. Language : Chinese

  102. Forced : No

  103. Encoded date : UTC 2023-01-04 06:10:03

  104. Tagged date : UTC 2023-01-04 06:10:07


  105. Text #4

  106. ID : 6

  107. Format : Timed Text

  108. Codec ID : tx3g

  109. Duration : 2 h 2 min

  110. Bit rate mode : Variable

  111. Bit rate : 68 b/s

  112. Stream size : 60.8 KiB (0%)

  113. Language : Arabic

  114. Forced : No

  115. Encoded date : UTC 2023-01-04 06:10:03

  116. Tagged date : UTC 2023-01-04 06:10:07


  117. Text #5

  118. ID : 7

  119. Format : Timed Text

  120. Codec ID : tx3g

  121. Duration : 2 h 2 min

  122. Bit rate mode : Variable

  123. Bit rate : 40 b/s

  124. Stream size : 35.4 KiB (0%)

  125. Language : Czech

  126. Forced : No

  127. Encoded date : UTC 2023-01-04 06:10:03

  128. Tagged date : UTC 2023-01-04 06:10:07


  129. Text #6

  130. ID : 8

  131. Format : Timed Text

  132. Codec ID : tx3g

  133. Duration : 2 h 2 min

  134. Bit rate mode : Variable

  135. Bit rate : 40 b/s

  136. Stream size : 35.6 KiB (0%)

  137. Language : Danish

  138. Forced : No

  139. Encoded date : UTC 2023-01-04 06:10:03

  140. Tagged date : UTC 2023-01-04 06:10:07


  141. Text #7

  142. ID : 9

  143. Format : Timed Text

  144. Codec ID : tx3g

  145. Duration : 2 h 2 min

  146. Bit rate mode : Variable

  147. Bit rate : 40 b/s

  148. Stream size : 36.0 KiB (0%)

  149. Language : German

  150. Forced : No

  151. Encoded date : UTC 2023-01-04 06:10:03

  152. Tagged date : UTC 2023-01-04 06:10:07


  153. Text #8

  154. ID : 10

  155. Format : Timed Text

  156. Codec ID : tx3g

  157. Duration : 2 h 2 min

  158. Bit rate mode : Variable

  159. Bit rate : 65 b/s

  160. Stream size : 58.3 KiB (0%)

  161. Language : Greek

  162. Forced : No

  163. Encoded date : UTC 2023-01-04 06:10:04

  164. Tagged date : UTC 2023-01-04 06:10:07


  165. Text #9

  166. ID : 11

  167. Format : Timed Text

  168. Codec ID : tx3g

  169. Duration : 2 h 2 min

  170. Bit rate mode : Variable

  171. Bit rate : 41 b/s

  172. Stream size : 36.5 KiB (0%)

  173. Title : Latin America

  174. Language : Spanish

  175. Forced : No

  176. Encoded date : UTC 2023-01-04 06:10:04

  177. Tagged date : UTC 2023-01-04 06:10:07


  178. Text #10

  179. ID : 12

  180. Format : Timed Text

  181. Codec ID : tx3g

  182. Duration : 2 h 2 min

  183. Bit rate mode : Variable

  184. Bit rate : 39 b/s

  185. Stream size : 35.2 KiB (0%)

  186. Language : Spanish

  187. Forced : No

  188. Encoded date : UTC 2023-01-04 06:10:04

  189. Tagged date : UTC 2023-01-04 06:10:07


  190. Text #11

  191. ID : 13

  192. Format : Timed Text

  193. Codec ID : tx3g

  194. Duration : 2 h 2 min

  195. Bit rate mode : Variable

  196. Bit rate : 38 b/s

  197. Stream size : 33.7 KiB (0%)

  198. Language : Finnish

  199. Forced : No

  200. Encoded date : UTC 2023-01-04 06:10:04

  201. Tagged date : UTC 2023-01-04 06:10:07


  202. Text #12

  203. ID : 14

  204. Format : Timed Text

  205. Codec ID : tx3g

  206. Duration : 1 h 55 min

  207. Bit rate mode : Variable

  208. Bit rate : 44 b/s

  209. Stream size : 37.2 KiB (0%)

  210. Language : fil

  211. Forced : No

  212. Encoded date : UTC 2023-01-04 06:10:04

  213. Tagged date : UTC 2023-01-04 06:10:07


  214. Text #13

  215. ID : 15

  216. Format : Timed Text

  217. Codec ID : tx3g

  218. Duration : 2 h 2 min

  219. Bit rate mode : Variable

  220. Bit rate : 39 b/s

  221. Stream size : 35.1 KiB (0%)

  222. Language : French

  223. Forced : No

  224. Encoded date : UTC 2023-01-04 06:10:04

  225. Tagged date : UTC 2023-01-04 06:10:07


  226. Text #14

  227. ID : 16

  228. Format : Timed Text

  229. Codec ID : tx3g

  230. Duration : 2 h 2 min

  231. Bit rate mode : Variable

  232. Bit rate : 64 b/s

  233. Stream size : 57.2 KiB (0%)

  234. Language : Hebrew

  235. Forced : No

  236. Encoded date : UTC 2023-01-04 06:10:04

  237. Tagged date : UTC 2023-01-04 06:10:07


  238. Text #15

  239. ID : 17

  240. Format : Timed Text

  241. Codec ID : tx3g

  242. Duration : 2 h 2 min

  243. Bit rate mode : Variable

  244. Bit rate : 40 b/s

  245. Stream size : 36.0 KiB (0%)

  246. Language : Hungarian

  247. Forced : No

  248. Encoded date : UTC 2023-01-04 06:10:04

  249. Tagged date : UTC 2023-01-04 06:10:07


  250. Text #16

  251. ID : 18

  252. Format : Timed Text

  253. Codec ID : tx3g

  254. Duration : 2 h 2 min

  255. Bit rate mode : Variable

  256. Bit rate : 38 b/s

  257. Stream size : 34.4 KiB (0%)

  258. Language : Indonesian

  259. Forced : No

  260. Encoded date : UTC 2023-01-04 06:10:05

  261. Tagged date : UTC 2023-01-04 06:10:07


  262. Text #17

  263. ID : 19

  264. Format : Timed Text

  265. Codec ID : tx3g

  266. Duration : 2 h 2 min

  267. Bit rate mode : Variable

  268. Bit rate : 37 b/s

  269. Stream size : 33.4 KiB (0%)

  270. Language : Italian

  271. Forced : No

  272. Encoded date : UTC 2023-01-04 06:10:05

  273. Tagged date : UTC 2023-01-04 06:10:07


  274. Text #18

  275. ID : 20

  276. Format : Timed Text

  277. Codec ID : tx3g

  278. Duration : 2 h 2 min

  279. Bit rate mode : Variable

  280. Bit rate : 41 b/s

  281. Stream size : 36.5 KiB (0%)

  282. Language : Japanese

  283. Forced : No

  284. Encoded date : UTC 2023-01-04 06:10:05

  285. Tagged date : UTC 2023-01-04 06:10:07


  286. Text #19

  287. ID : 21

  288. Format : Timed Text

  289. Codec ID : tx3g

  290. Duration : 2 h 2 min

  291. Bit rate mode : Variable

  292. Bit rate : 49 b/s

  293. Stream size : 43.7 KiB (0%)

  294. Language : Korean

  295. Forced : No

  296. Encoded date : UTC 2023-01-04 06:10:05

  297. Tagged date : UTC 2023-01-04 06:10:07


  298. Text #20

  299. ID : 22

  300. Format : Timed Text

  301. Codec ID : tx3g

  302. Duration : 2 h 1 min

  303. Bit rate mode : Variable

  304. Bit rate : 40 b/s

  305. Stream size : 35.8 KiB (0%)

  306. Language : Norwegian Bokmal

  307. Forced : No

  308. Encoded date : UTC 2023-01-04 06:10:05

  309. Tagged date : UTC 2023-01-04 06:10:07


  310. Text #21

  311. ID : 23

  312. Format : Timed Text

  313. Codec ID : tx3g

  314. Duration : 2 h 2 min

  315. Bit rate mode : Variable

  316. Bit rate : 41 b/s

  317. Stream size : 36.7 KiB (0%)

  318. Language : Dutch

  319. Forced : No

  320. Encoded date : UTC 2023-01-04 06:10:05

  321. Tagged date : UTC 2023-01-04 06:10:07


  322. Text #22

  323. ID : 24

  324. Format : Timed Text

  325. Codec ID : tx3g

  326. Duration : 2 h 1 min

  327. Bit rate mode : Variable

  328. Bit rate : 39 b/s

  329. Stream size : 34.6 KiB (0%)

  330. Language : Polish

  331. Forced : No

  332. Encoded date : UTC 2023-01-04 06:10:05

  333. Tagged date : UTC 2023-01-04 06:10:07


  334. Text #23

  335. ID : 25

  336. Format : Timed Text

  337. Codec ID : tx3g

  338. Duration : 1 h 55 min

  339. Bit rate mode : Variable

  340. Bit rate : 41 b/s

  341. Stream size : 34.6 KiB (0%)

  342. Title : Brazil

  343. Language : Portuguese

  344. Forced : No

  345. Encoded date : UTC 2023-01-04 06:10:05

  346. Tagged date : UTC 2023-01-04 06:10:07


  347. Text #24

  348. ID : 26

  349. Format : Timed Text

  350. Codec ID : tx3g

  351. Duration : 2 h 2 min

  352. Bit rate mode : Variable

  353. Bit rate : 42 b/s

  354. Stream size : 37.8 KiB (0%)

  355. Language : Portuguese

  356. Forced : No

  357. Encoded date : UTC 2023-01-04 06:10:06

  358. Tagged date : UTC 2023-01-04 06:10:07


  359. Text #25

  360. ID : 27

  361. Format : Timed Text

  362. Codec ID : tx3g

  363. Duration : 2 h 2 min

  364. Bit rate mode : Variable

  365. Bit rate : 45 b/s

  366. Stream size : 40.5 KiB (0%)

  367. Language : Romanian

  368. Forced : No

  369. Encoded date : UTC 2023-01-04 06:10:06

  370. Tagged date : UTC 2023-01-04 06:10:07


  371. Text #26

  372. ID : 28

  373. Format : Timed Text

  374. Codec ID : tx3g

  375. Duration : 2 h 2 min

  376. Bit rate mode : Variable

  377. Bit rate : 64 b/s

  378. Stream size : 57.5 KiB (0%)

  379. Language : Russian

  380. Forced : No

  381. Encoded date : UTC 2023-01-04 06:10:06

  382. Tagged date : UTC 2023-01-04 06:10:07


  383. Text #27

  384. ID : 29

  385. Format : Timed Text

  386. Codec ID : tx3g

  387. Duration : 2 h 2 min

  388. Bit rate mode : Variable

  389. Bit rate : 39 b/s

  390. Stream size : 34.8 KiB (0%)

  391. Language : Swedish

  392. Forced : No

  393. Encoded date : UTC 2023-01-04 06:10:06

  394. Tagged date : UTC 2023-01-04 06:10:07


  395. Text #28

  396. ID : 30

  397. Format : Timed Text

  398. Codec ID : tx3g

  399. Duration : 2 h 2 min

  400. Bit rate mode : Variable

  401. Bit rate : 103 b/s

  402. Stream size : 92.0 KiB (0%)

  403. Language : Thai

  404. Forced : No

  405. Encoded date : UTC 2023-01-04 06:10:06

  406. Tagged date : UTC 2023-01-04 06:10:07


  407. Text #29

  408. ID : 31

  409. Format : Timed Text

  410. Codec ID : tx3g

  411. Duration : 2 h 2 min

  412. Bit rate mode : Variable

  413. Bit rate : 40 b/s

  414. Stream size : 35.7 KiB (0%)

  415. Language : Turkish

  416. Forced : No

  417. Encoded date : UTC 2023-01-04 06:10:06

  418. Tagged date : UTC 2023-01-04 06:10:07


  419. Text #30

  420. ID : 32

  421. Format : Timed Text

  422. Codec ID : tx3g

  423. Duration : 2 h 2 min

  424. Bit rate mode : Variable

  425. Bit rate : 65 b/s

  426. Stream size : 58.0 KiB (0%)

  427. Language : Ukrainian

  428. Forced : No

  429. Encoded date : UTC 2023-01-04 06:10:06

  430. Tagged date : UTC 2023-01-04 06:10:07


  431. Text #31

  432. ID : 33

  433. Format : Timed Text

  434. Codec ID : tx3g

  435. Duration : 2 h 2 min

  436. Bit rate mode : Variable

  437. Bit rate : 53 b/s

  438. Stream size : 47.2 KiB (0%)

  439. Language : Vietnamese

  440. Forced : No

  441. Encoded date : UTC 2023-01-04 06:10:06

  442. Tagged date : UTC 2023-01-04 06:10:07


复制代码




文件下载


除非特别注明,本文『续命之徒:绝命毒师电影[杜比视界版本][简繁英字幕].El.Camino.A.Breaking.Bad.Movie.2019.2160p.NF.WEB-DL.DDP.5.1.Atmos.DV.H.26』来源于互联网机器人自动抓取,非本站原创。 浮游电影网不对本文拥有版权,如有侵犯,请联系邮箱:fuyouu#yandex.com[#换成@]投诉。我们会在15个工作日内删除。 但烦请转载时请标明出处:“本文转载于『浮游电影网』,原文地址:https://www.fuyouu.com/22992.html

评论吧骚年!

发表你的见解   

昵称*

E-mail*(建议输入,以便收到博主回复的提示邮件)

验证码*

您可以使用eMule或eMule Mod(Windows)、aMule(Win、Linux、Mac)等软件下载eD2k链接。。
eMule收藏集(.emulecollection)文件是您选中的所有链接的列表文件。eMule可以直接下载它们。
按住SHIFT键选择可以选中多个选择框。
可用文件名和大小选择器来选择文件。
文件名选择器帮您根据文件名称或后缀来选择文件。不分大小写。
符号使用:
和:空格( )、+
不包含:-
或:|
转义:一对英文引号("");
匹配开头:^
匹配结尾:$
例如:
选中所有名称中包含有“eMule”或“0.49c”字眼,但不包含有“exe”字眼的:emule|0.49c -exe
选中所有名称的开头是“eMule”,结尾是“0.49c”的:^emule 0.49c$
选中所有名称中带有“eMule 0.49c”的(必须是“eMule 0.49c”,中间没有别的字符,不能是“eMule fake 0.49c”),需要转义:"emule 0.49c"
大小选择器帮您根据文件大小选择文件。