当前位置: 首页 >> 动画电影 >> 喜羊羊与灰太狼之筐出未来[杜比视界版本][国语配音/中文字幕].Dunk.For.Future.2022.2160p.WEB-DL.H265.DV.DDP5.1.2Audio-NUMTV 5.41GB >> 正文

喜羊羊与灰太狼之筐出未来[杜比视界版本][国语配音/中文字幕].Dunk.For.Future.2022.2160p.WEB-DL.H265.DV.DDP5.1.2Audio-NUMTV 5.41GB

2023年01月06日 08:32:44     电影发布:来源于网络     电影分类:动画电影     评论(0)    

◎标 题 喜羊羊与灰太狼之筐出未来

◎译 名 筐出未来 / 喜羊羊与灰太狼之运动英雄传2 / Dunk For Future / Pleasant Goat and Big Big Wolf: Dunk for Future

◎年 代 2022

◎产 地 中国大陆

◎类 别 喜剧 / 动画 / 运动

◎语 言 汉语普通话 / 粤语

◎上映日期 2022-02-01(中国大陆)

◎IMDb评分 7.1/10 (45人评价)

◎IMDb链接 https://www.imdb.com/title/tt17081130/

◎豆瓣评分 6.8/10 (33215人评价)

◎豆瓣链接 https://movie.douban.com/subject/35608160/

◎片 长 94分钟

◎导 演 黄伟明 Leo Huang

◎编 剧 吴潮威 Chaowei Wu

◎演 员 祖晴 Qing Zu

张琳 Lin Zhang

邓玉婷 Yuting Deng

梁颖 Ying Liang

刘红韵 Hongyun Liu

高全胜 Quansheng Gao

赵娜 Na Zhao

蔡瑞琼

黄晓雪

黄俊铭

陈力进

◎简 介

喜羊羊、灰太狼与一众小羊组成的守护者队进入篮球顶级赛事决赛,但却意外地败北,团队分崩离析。

虽然各散东西,但对篮球的热爱和对冠军的渴望让大家再次组队,参加新一届大赛,然而这次的对手更强大,他们面临更大的挑战!

  1. ##### MediaInfo ######

  2. General

  3. Complete name : 喜羊羊与灰太狼之筐出未来.Dunk.For.Future.2022.2160p.WEB-DL.H265.DV.DDP5.1.2Audio-NUMTV.mp4

  4. Format : MPEG-4

  5. Format profile : Base Media / Version 2

  6. Codec ID : mp42 (mp42/iso6/isom/msdh/dby1)

  7. File size : 5.41 GiB

  8. Duration : 1 h 34 min

  9. Overall bit rate : 8 213 kb/s

  10. Encoded date : UTC 2023-01-04 13:22:38

  11. Tagged date : UTC 2023-01-04 13:22:38


  12. Video

  13. ID : 1

  14. Format : HEVC

  15. Format/Info : High Efficiency Video Coding

  16. Format profile : Main [email protected]@Main

  17. HDR format : Dolby Vision, Version 1.0, dvhe.05.06, BL+RPU

  18. Codec ID : dvhe

  19. Codec ID/Info : High Efficiency Video Coding with Dolby Vision

  20. Duration : 1 h 34 min

  21. Bit rate : 7 314 kb/s

  22. Width : 3 840 pixels

  23. Height : 1 600 pixels

  24. Display aspect ratio : 2.40:1

  25. Frame rate mode : Constant

  26. Frame rate : 24.000 FPS

  27. Color space : YUV

  28. Chroma subsampling : 4:2:0

  29. Bit depth : 10 bits

  30. Bits/(Pixel*Frame) : 0.050

  31. Stream size : 4.82 GiB (89%)

  32. Default : Yes

  33. Alternate group : 1

  34. Encoded date : UTC 2023-01-04 13:22:38

  35. Tagged date : UTC 2023-01-04 13:22:38

  36. Color range : Full

  37. Codec configuration box : hvcC+dvcC


  38. Audio #1

  39. ID : 2

  40. Format : E-AC-3

  41. Format/Info : Enhanced AC-3

  42. Commercial name : Dolby Digital Plus

  43. Codec ID : ac-3

  44. Duration : 1 h 34 min

  45. Bit rate mode : Constant

  46. Bit rate : 384 kb/s

  47. Channel(s) : 6 channels

  48. Channel layout : L R C LFE Ls Rs

  49. Sampling rate : 48.0 kHz

  50. Frame rate : 31.250 FPS (1536 SPF)

  51. Compression mode : Lossy

  52. Stream size : 259 MiB (5%)

  53. Language : Chinese

  54. Service kind : Complete Main

  55. Default : Yes

  56. Alternate group : 2

  57. Encoded date : UTC 2023-01-04 13:22:38

  58. Tagged date : UTC 2023-01-04 13:22:38


  59. Audio #2

  60. ID : 3

  61. Format : E-AC-3

  62. Format/Info : Enhanced AC-3

  63. Commercial name : Dolby Digital Plus

  64. Codec ID : ac-3

  65. Duration : 1 h 34 min

  66. Bit rate mode : Constant

  67. Bit rate : 256 kb/s

  68. Channel(s) : 2 channels

  69. Channel layout : L R

  70. Sampling rate : 48.0 kHz

  71. Frame rate : 31.250 FPS (1536 SPF)

  72. Compression mode : Lossy

  73. Stream size : 173 MiB (3%)

  74. Language : Chinese

  75. Service kind : Complete Main

  76. Default : No

  77. Alternate group : 2

  78. Encoded date : UTC 2023-01-04 13:22:38

  79. Tagged date : UTC 2023-01-04 13:22:38


  80. Audio #3

  81. ID : 4

  82. Format : E-AC-3

  83. Format/Info : Enhanced AC-3

  84. Commercial name : Dolby Digital Plus

  85. Codec ID : ac-3

  86. Duration : 1 h 34 min

  87. Bit rate mode : Constant

  88. Bit rate : 256 kb/s

  89. Channel(s) : 2 channels

  90. Channel layout : L R

  91. Sampling rate : 48.0 kHz

  92. Frame rate : 31.250 FPS (1536 SPF)

  93. Compression mode : Lossy

  94. Stream size : 173 MiB (3%)

  95. Language : Chinese

  96. Service kind : Complete Main

  97. Default : No

  98. Alternate group : 2

  99. Encoded date : UTC 2023-01-04 13:22:38

  100. Tagged date : UTC 2023-01-04 13:22:38




文件下载


除非特别注明,本文『喜羊羊与灰太狼之筐出未来[杜比视界版本][国语配音/中文字幕].Dunk.For.Future.2022.2160p.WEB-DL.H265.DV.DDP5.1.2Audio-NUMTV 5.41GB』来源于互联网机器人自动抓取,非本站原创。 浮游电影网不对本文拥有版权,如有侵犯,请联系邮箱:fuyouu#yandex.com[#换成@]投诉。我们会在15个工作日内删除。 但烦请转载时请标明出处:“本文转载于『浮游电影网』,原文地址:https://www.fuyouu.com/22991.html

评论吧骚年!

发表你的见解   

昵称*

E-mail*(建议输入,以便收到博主回复的提示邮件)

验证码*

您可以使用eMule或eMule Mod(Windows)、aMule(Win、Linux、Mac)等软件下载eD2k链接。。
eMule收藏集(.emulecollection)文件是您选中的所有链接的列表文件。eMule可以直接下载它们。
按住SHIFT键选择可以选中多个选择框。
可用文件名和大小选择器来选择文件。
文件名选择器帮您根据文件名称或后缀来选择文件。不分大小写。
符号使用:
和:空格( )、+
不包含:-
或:|
转义:一对英文引号("");
匹配开头:^
匹配结尾:$
例如:
选中所有名称中包含有“eMule”或“0.49c”字眼,但不包含有“exe”字眼的:emule|0.49c -exe
选中所有名称的开头是“eMule”,结尾是“0.49c”的:^emule 0.49c$
选中所有名称中带有“eMule 0.49c”的(必须是“eMule 0.49c”,中间没有别的字符,不能是“eMule fake 0.49c”),需要转义:"emule 0.49c"
大小选择器帮您根据文件大小选择文件。