当前位置: 首页 >> 日韩电影 >> 老师与流浪猫[中文字幕].Teacher.and.Stray.Cat.2015.BluRay.1080p.x265.10bit-MiniHD 3.23GB >> 正文

老师与流浪猫[中文字幕].Teacher.and.Stray.Cat.2015.BluRay.1080p.x265.10bit-MiniHD 3.23GB

2023年01月05日 22:47:56     电影发布:来源于网络     电影分类:日韩电影     评论(0)    

◎标 题 老师与流浪猫

◎译 名 先生和迷路猫 / Sensei to Mayoi Neko / Teacher and Stray Cat

◎片 名 先生と迷い猫

◎年 代 2015

◎产 地 日本

◎类 别 喜剧

◎语 言 日语

◎上映日期 2015-10-10(日本)

◎IMDb评分 6.3/10 (172人评价)

◎IMDb链接 https://www.imdb.com/title/tt4156646/

◎豆瓣评分 7.2/10 (3820人评价)

◎豆瓣链接 https://movie.douban.com/subject/26200179/

◎片 长 107分钟

◎导 演 深川荣洋 Yoshihiro Fukagawa

◎编 剧 小林弘利 Hirotoshi Kobayashi

◎演 员 尾形一成 Issei Ogata

染谷将太 Shôta Sometani

北乃绮 Kie Kitano

泷正则 Pierre Taki

岛田久作 Kyûsaku Shimada

佐佐木澄江 Sumie Sasaki

竹山隆范 Takanori Takeyama

久保田纱友 Sayu Kubota

罇真佐子 Masako Motai

岸本加世子 Kayoko Kishimoto

◎简 介

老校长森衣恭一(尾形一成 饰)在妻子去世之后过着离群索居的生活,个性古板而又顽固的他将自己的全部精力都投入到了俄罗斯文学的翻译工作之中。唯一还在和恭一走动的,除了经常给他带来各种资料的社工小鹿祥吾(染谷将太 饰)外,就只有一只可爱的小猫咪了。

这只小猫是恭一的太太生前喂养的流浪猫,它每天都会准时准点的出现在恭一家的院子里,于是恭一接替了太太的工作,成为了小猫的下一任“铲屎官”。某日,恭一发现小猫已经好几天没有出现了,对小猫已经产生了很深厚的感情的他决定走出家门,踏上寻找小猫的旅途。

  1. ##### MediaInfo ######

  2. General

  3. Unique ID : 217952418202711383513300137708826078539 (0xA3F81BDEB22C761AB72498F8260B2D4B)

  4. Complete name : Teacher.and.Stray.Cat.2015.BluRay.1080p.x265.10bit-MiniHD.mkv

  5. Format : Matroska

  6. Format version : Version 4

  7. File size : 3.23 GiB

  8. Duration : 1 h 47 min

  9. Overall bit rate : 4 319 kb/s

  10. Encoded date : UTC 2016-05-24 13:45:32

  11. Writing application : mkvmerge v9.1.0 ('Little Earthquakes') 32bit

  12. Writing library : libebml v1.3.3 + libmatroska v1.4.4


  13. Video

  14. ID : 1

  15. Format : HEVC

  16. Format/Info : High Efficiency Video Coding

  17. Format profile : Main [email protected]@Main

  18. Codec ID : V_MPEGH/ISO/HEVC

  19. Duration : 1 h 47 min

  20. Bit rate : 3 593 kb/s

  21. Width : 1 920 pixels

  22. Height : 1 036 pixels

  23. Display aspect ratio : 1.85:1

  24. Frame rate mode : Constant

  25. Frame rate : 23.976 (24000/1001) FPS

  26. Color space : YUV

  27. Chroma subsampling : 4:2:0

  28. Bit depth : 10 bits

  29. Bits/(Pixel*Frame) : 0.075

  30. Stream size : 2.69 GiB (83%)

  31. Writing library : x265 1.9+96-b09998b1256e:[Windows][GCC 5.3.0][64 bit] 10bit

  32. Encoding settings : wpp / ctu=32 / min-cu-size=8 / max-tu-size=16 / tu-intra-depth=2 / tu-inter-depth=2 / me=2 / subme=5 / merange=27 / no-rect / no-amp / max-merge=3 / temporal-mvp / no-early-skip / rdpenalty=1 / no-tskip / no-tskip-fast / no-strong-intra-smoothing / no-lossless / no-cu-lossless / no-constrained-intra / no-fast-intra / no-open-gop / no-temporal-layers / interlace=0 / keyint=360 / min-keyint=1 / scenecut=40 / rc-lookahead=60 / lookahead-slices=4 / bframes=8 / bframe-bias=0 / b-adapt=2 / ref=5 / limit-refs=3 / limit-modes / weightp / weightb / aq-mode=1 / qg-size=16 / aq-strength=1.00 / cbqpoffs=0 / crqpoffs=0 / rd=4 / psy-rd=0.30 / rdoq-level=1 / psy-rdoq=5.00 / no-rd-refine / signhide / deblock=-1:-1 / no-sao / no-sao-non-deblock / b-pyramid / cutree / no-intra-refresh / rc=crf / crf=19.0 / qcomp=0.60 / qpmin=0 / qpmax=51 / qpstep=4 / ipratio=1.40 / pbratio=1.30

  33. Default : Yes

  34. Forced : No

  35. Color range : Limited

  36. Color primaries : BT.709


  37. Audio

  38. ID : 2

  39. Format : AC-3

  40. Format/Info : Audio Coding 3

  41. Commercial name : Dolby Digital

  42. Codec ID : A_AC3

  43. Duration : 1 h 47 min

  44. Bit rate mode : Constant

  45. Bit rate : 640 kb/s

  46. Channel(s) : 6 channels

  47. Channel layout : L R C LFE Ls Rs

  48. Sampling rate : 48.0 kHz

  49. Frame rate : 31.250 FPS (1536 SPF)

  50. Compression mode : Lossy

  51. Stream size : 490 MiB (15%)

  52. Language : Japanese

  53. Service kind : Complete Main

  54. Default : Yes

  55. Forced : No


  56. Text #1

  57. ID : 3

  58. Format : PGS

  59. Muxing mode : zlib

  60. Codec ID : S_HDMV/PGS

  61. Codec ID/Info : Picture based subtitle format used on BDs/HD-DVDs

  62. Language : Chinese

  63. Default : Yes

  64. Forced : No


  65. Text #2

  66. ID : 4

  67. Format : PGS

  68. Muxing mode : zlib

  69. Codec ID : S_HDMV/PGS

  70. Codec ID/Info : Picture based subtitle format used on BDs/HD-DVDs

  71. Language : Chinese

  72. Default : No

  73. Forced : No


  74. Text #3

  75. ID : 5

  76. Format : PGS

  77. Muxing mode : zlib

  78. Codec ID : S_HDMV/PGS

  79. Codec ID/Info : Picture based subtitle format used on BDs/HD-DVDs

  80. Language : Chinese

  81. Default : No

  82. Forced : No


  83. Text #4

  84. ID : 6

  85. Format : PGS

  86. Muxing mode : zlib

  87. Codec ID : S_HDMV/PGS

  88. Codec ID/Info : Picture based subtitle format used on BDs/HD-DVDs

  89. Language : Chinese

  90. Default : No

  91. Forced : No


  92. Menu

  93. 00:00:00.000 : en:Chapter 01

  94. 00:11:02.494 : en:Chapter 02

  95. 00:24:21.916 : en:Chapter 03

  96. 00:36:31.813 : en:Chapter 04

  97. 00:49:06.484 : en:Chapter 05

  98. 01:02:03.052 : en:Chapter 06

  99. 01:14:23.832 : en:Chapter 07

  100. 01:27:09.264 : en:Chapter 08

  101. 01:43:27.618 : en:Chapter 09


复制代码





文件下载


除非特别注明,本文『老师与流浪猫[中文字幕].Teacher.and.Stray.Cat.2015.BluRay.1080p.x265.10bit-MiniHD 3.23GB』来源于互联网机器人自动抓取,非本站原创。 浮游电影网不对本文拥有版权,如有侵犯,请联系邮箱:fuyouu#yandex.com[#换成@]投诉。我们会在15个工作日内删除。 但烦请转载时请标明出处:“本文转载于『浮游电影网』,原文地址:https://www.fuyouu.com/22989.html

评论吧骚年!

发表你的见解   

昵称*

E-mail*(建议输入,以便收到博主回复的提示邮件)

验证码*

您可以使用eMule或eMule Mod(Windows)、aMule(Win、Linux、Mac)等软件下载eD2k链接。。
eMule收藏集(.emulecollection)文件是您选中的所有链接的列表文件。eMule可以直接下载它们。
按住SHIFT键选择可以选中多个选择框。
可用文件名和大小选择器来选择文件。
文件名选择器帮您根据文件名称或后缀来选择文件。不分大小写。
符号使用:
和:空格( )、+
不包含:-
或:|
转义:一对英文引号("");
匹配开头:^
匹配结尾:$
例如:
选中所有名称中包含有“eMule”或“0.49c”字眼,但不包含有“exe”字眼的:emule|0.49c -exe
选中所有名称的开头是“eMule”,结尾是“0.49c”的:^emule 0.49c$
选中所有名称中带有“eMule 0.49c”的(必须是“eMule 0.49c”,中间没有别的字符,不能是“eMule fake 0.49c”),需要转义:"emule 0.49c"
大小选择器帮您根据文件大小选择文件。