当前位置: 首页 >> 欧美电影 >> 肖申克的救赎[国英多音轨/简繁英双语特效字幕].The.Shawshank.Redemption.1994.BluRay.1080p.x265.10bit.5Audio-MiniHD 11.03GB >> 正文

肖申克的救赎[国英多音轨/简繁英双语特效字幕].The.Shawshank.Redemption.1994.BluRay.1080p.x265.10bit.5Audio-MiniHD 11.03GB

2023年01月05日 22:47:23     电影发布:来源于网络     电影分类:欧美电影     评论(0)    

◎标 题 肖申克的救赎

◎译 名 月黑高飞(港) / 刺激1995(台) / 地狱诺言 / 铁窗岁月 / 消香克的救赎

◎片 名 The Shawshank Redemption

◎年 代 1994

◎产 地 美国

◎类 别 剧情 / 犯罪

◎语 言 英语

◎上映日期 1994-09-10(多伦多电影节) / 1994-10-14(美国)

◎IMDb评分 9.3/10 (2680132人评价)

◎IMDb链接 https://www.imdb.com/title/tt0111161/

◎豆瓣评分 9.7/10 (2761978人评价)

◎豆瓣链接 https://movie.douban.com/subject/1292052/

◎片 长 142分钟

◎导 演 弗兰克·德拉邦特 Frank Darabont

◎编 剧 弗兰克·德拉邦特 Frank Darabont

斯蒂芬·金 Stephen King

◎演 员 蒂姆·罗宾斯 Tim Robbins

摩根·弗里曼 Morgan Freeman

鲍勃·冈顿 Bob Gunton

威廉姆·赛德勒 William Sadler

克兰西·布朗 Clancy Brown

吉尔·贝罗斯 Gil Bellows

马克·罗斯顿 Mark Rolston

詹姆斯·惠特摩 James Whitmore

杰弗里·德曼 Jeffrey DeMunn

拉里·布兰登伯格 Larry Brandenburg

尼尔·吉恩托利 Neil Giuntoli

布赖恩·利比 Brian Libby

大卫·普罗瓦尔 David Proval

约瑟夫·劳格诺 Joseph Ragno

祖德·塞克利拉 Jude Ciccolella

保罗·麦克兰尼 Paul McCrane

芮妮·布莱恩 Renee Blaine

阿方索·弗里曼 Alfonso Freeman

V·J·福斯特 V.J. Foster

弗兰克·梅德拉诺 Frank Medrano

马克·迈尔斯 Mack Miles

尼尔·萨默斯 Neil Summers

耐德·巴拉米 Ned Bellamy

布赖恩·戴拉特 Brian Delate

唐·麦克马纳斯 Don McManus

丽兹·格洛策 Liz Glotzer

妮基·马文 Niki Marvin

托马斯·纽曼 Thomas Newman

罗杰·狄金斯 Roger Deakins

理查德·弗朗西斯-布鲁斯 Richard Francis-Bruce

德博拉·阿奎拉 Deborah Aquila

迈克尔·塞尔顿 Michael Seirton

泰伦斯·马什 Terence Marsh

伊丽莎白·麦克布莱德 Elizabeth McBride

凯文·黑尼 Kevin Haney

蒙蒂·韦斯特摩尔 Monty Westmore

杰西·约翰逊 Jesse V. Johnson

梅利莎·泰勒 Melissa Taylor

布莱恩·亚当斯 Brian Adams

汤姆·莫尔加 Tom Morga

本·斯科特 Ben Scott

◎简 介

一场谋杀案使银行家安迪(蒂姆•罗宾斯 Tim Robbins 饰)蒙冤入狱,谋杀妻子及其情人的指控将囚禁他终生。在肖申克监狱的首次现身就让监狱“大哥”瑞德(摩根•弗里曼 Morgan Freeman 饰)对他另眼相看。瑞德帮助他搞到一把石锤和一幅女明星海报,两人渐成患难 之交。很快,安迪在监狱里大显其才,担当监狱图书管理员,并利用自己的金融知识帮助监狱官避税,引起了典狱长的注意,被招致麾下帮助典狱长洗黑钱。偶然一次,他得知一名新入狱的小偷能够作证帮他洗脱谋杀罪。燃起一丝希望的安迪找到了典狱长,希望他能帮自己翻案。阴险伪善的狱长假装答应安迪,背后却派人杀死小偷,让他唯一能合法出狱的希望泯灭。沮丧的安迪并没有绝望,在一个电闪雷鸣的风雨夜,一场暗藏几十年的越狱计划让他自我救赎,重获自由!老朋友瑞德在他的鼓舞和帮助下,也勇敢地奔向自由。

本片获得1995年奥...

  1. ##### MediaInfo ######

  2. General

  3. Unique ID : 214876638595798537588710783389858976966 (0xA1A7BC3A22F02ECA8C8EA41D361AD4C6)

  4. Complete name : The.Shawshank.Redemption.1994.BluRay.1080p.x265.10bit.5Audio-MiniHD.mkv

  5. Format : Matroska

  6. Format version : Version 4

  7. File size : 11.0 GiB

  8. Duration : 2 h 22 min

  9. Overall bit rate : 11.1 Mb/s

  10. Movie name : The Shawshank Redemption 1994 1080p BluRay DTS 4Audio x265-10bit-HDS

  11. Encoded date : UTC 2017-10-13 06:51:46

  12. Writing application : mkvmerge v15.0.0 ('Duel with the Devil') 64-bit

  13. Writing library : libebml v1.3.5 + libmatroska v1.4.5


  14. Video

  15. ID : 1

  16. Format : HEVC

  17. Format/Info : High Efficiency Video Coding

  18. Format profile : Main [email protected]@Main

  19. Codec ID : V_MPEGH/ISO/HEVC

  20. Duration : 2 h 22 min

  21. Bit rate : 7 141 kb/s

  22. Width : 1 920 pixels

  23. Height : 1 080 pixels

  24. Display aspect ratio : 16:9

  25. Frame rate mode : Constant

  26. Frame rate : 23.976 (24000/1001) FPS

  27. Color space : YUV

  28. Chroma subsampling : 4:2:0

  29. Bit depth : 10 bits

  30. Bits/(Pixel*Frame) : 0.144

  31. Stream size : 7.11 GiB (64%)

  32. Writing library : x265 2.0+10-5a0e139e2938:[Windows][GCC 6.1.0][64 bit] 10bit

  33. Encoding settings : wpp / ctu=32 / min-cu-size=8 / max-tu-size=16 / tu-intra-depth=2 / tu-inter-depth=2 / me=3 / subme=5 / merange=25 / rect / no-amp / max-merge=3 / temporal-mvp / no-early-skip / rskip / rdpenalty=1 / no-tskip / no-tskip-fast / no-strong-intra-smoothing / no-lossless / no-cu-lossless / no-constrained-intra / no-fast-intra / no-open-gop / no-temporal-layers / interlace=0 / keyint=360 / min-keyint=1 / scenecut=40 / rc-lookahead=60 / lookahead-slices=4 / bframes=8 / bframe-bias=0 / b-adapt=2 / ref=5 / limit-refs=3 / limit-modes / weightp / weightb / aq-mode=3 / qg-size=16 / aq-strength=0.90 / cbqpoffs=-3 / crqpoffs=-3 / rd=4 / psy-rd=1.00 / rdoq-level=2 / psy-rdoq=5.00 / no-rd-refine / signhide / deblock=-1:-1 / no-sao / no-sao-non-deblock / b-pyramid / cutree / no-intra-refresh / rc=crf / crf=19.0 / qcomp=0.65 / qpmin=0 / qpmax=69 / qpstep=4 / ipratio=1.40 / pbratio=1.30

  34. Language : English

  35. Default : Yes

  36. Forced : No

  37. Color range : Limited

  38. Color primaries : BT.709


  39. Audio #1

  40. ID : 2

  41. Format : DTS

  42. Format/Info : Digital Theater Systems

  43. Codec ID : A_DTS

  44. Duration : 2 h 22 min

  45. Bit rate mode : Constant

  46. Bit rate : 1 509 kb/s

  47. Channel(s) : 6 channels

  48. Channel layout : C L R Ls Rs LFE

  49. Sampling rate : 48.0 kHz

  50. Frame rate : 93.750 FPS (512 SPF)

  51. Bit depth : 24 bits

  52. Compression mode : Lossy

  53. Stream size : 1.50 GiB (14%)

  54. Title : 英语原声DTS 5.1

  55. Language : English

  56. Default : Yes

  57. Forced : No


  58. Audio #2

  59. ID : 3

  60. Format : DTS

  61. Format/Info : Digital Theater Systems

  62. Codec ID : A_DTS

  63. Duration : 2 h 22 min

  64. Bit rate mode : Constant

  65. Bit rate : 754 kb/s

  66. Channel(s) : 6 channels

  67. Channel layout : C L R Ls Rs LFE

  68. Sampling rate : 48.0 kHz

  69. Frame rate : 93.750 FPS (512 SPF)

  70. Bit depth : 24 bits

  71. Compression mode : Lossy

  72. Stream size : 769 MiB (7%)

  73. Title : 北影国配DTS 5.1

  74. Language : Chinese

  75. Default : No

  76. Forced : No


  77. Audio #3

  78. ID : 4

  79. Format : DTS

  80. Format/Info : Digital Theater Systems

  81. Codec ID : A_DTS

  82. Duration : 2 h 22 min

  83. Bit rate mode : Constant

  84. Bit rate : 754 kb/s

  85. Channel(s) : 6 channels

  86. Channel layout : C L R Ls Rs LFE

  87. Sampling rate : 48.0 kHz

  88. Frame rate : 93.750 FPS (512 SPF)

  89. Bit depth : 24 bits

  90. Compression mode : Lossy

  91. Stream size : 769 MiB (7%)

  92. Title : 央视国配DTS 5.1

  93. Language : Chinese

  94. Default : No

  95. Forced : No


  96. Audio #4

  97. ID : 5

  98. Format : AC-3

  99. Format/Info : Audio Coding 3

  100. Commercial name : Dolby Digital

  101. Codec ID : A_AC3

  102. Duration : 2 h 22 min

  103. Bit rate mode : Constant

  104. Bit rate : 448 kb/s

  105. Channel(s) : 6 channels

  106. Channel layout : L R C LFE Ls Rs

  107. Sampling rate : 48.0 kHz

  108. Frame rate : 31.250 FPS (1536 SPF)

  109. Compression mode : Lossy

  110. Stream size : 457 MiB (4%)

  111. Title : 新索国配DD 5.1

  112. Language : Chinese

  113. Service kind : Complete Main

  114. Default : No

  115. Forced : No


  116. Audio #5

  117. ID : 6

  118. Format : AC-3

  119. Format/Info : Audio Coding 3

  120. Commercial name : Dolby Digital

  121. Codec ID : A_AC3

  122. Duration : 2 h 22 min

  123. Bit rate mode : Constant

  124. Bit rate : 192 kb/s

  125. Channel(s) : 2 channels

  126. Channel layout : L R

  127. Sampling rate : 48.0 kHz

  128. Frame rate : 31.250 FPS (1536 SPF)

  129. Compression mode : Lossy

  130. Stream size : 196 MiB (2%)

  131. Title : 英语导评DD 2.0

  132. Language : English

  133. Service kind : Complete Main

  134. Default : No

  135. Forced : No


  136. Text #1

  137. ID : 7

  138. Format : PGS

  139. Muxing mode : zlib

  140. Codec ID : S_HDMV/PGS

  141. Codec ID/Info : Picture based subtitle format used on BDs/HD-DVDs

  142. Duration : 2 h 15 min

  143. Bit rate : 32.8 kb/s

  144. Count of elements : 3378

  145. Stream size : 31.8 MiB (0%)

  146. Title : 英文

  147. Language : English

  148. Default : Yes

  149. Forced : No


  150. Text #2

  151. ID : 8

  152. Format : PGS

  153. Muxing mode : zlib

  154. Codec ID : S_HDMV/PGS

  155. Codec ID/Info : Picture based subtitle format used on BDs/HD-DVDs

  156. Duration : 2 h 18 min

  157. Bit rate : 83.6 kb/s

  158. Count of elements : 4125

  159. Stream size : 82.6 MiB (1%)

  160. Title : 北影国配简中特效

  161. Language : Chinese

  162. Default : No

  163. Forced : No


  164. Text #3

  165. ID : 9

  166. Format : PGS

  167. Muxing mode : zlib

  168. Codec ID : S_HDMV/PGS

  169. Codec ID/Info : Picture based subtitle format used on BDs/HD-DVDs

  170. Duration : 2 h 17 min

  171. Bit rate : 28.5 kb/s

  172. Count of elements : 3546

  173. Stream size : 28.1 MiB (0%)

  174. Title : 央视国配简体中文

  175. Language : Chinese

  176. Default : No

  177. Forced : No


  178. Text #4

  179. ID : 10

  180. Format : ASS

  181. Codec ID : S_TEXT/ASS

  182. Codec ID/Info : Advanced Sub Station Alpha

  183. Duration : 2 h 18 min

  184. Bit rate : 298 b/s

  185. Count of elements : 1855

  186. Compression mode : Lossless

  187. Stream size : 302 KiB (0%)

  188. Title : 新索国配简英特效

  189. Language : Chinese

  190. Default : No

  191. Forced : No


  192. Text #5

  193. ID : 11

  194. Format : PGS

  195. Muxing mode : zlib

  196. Codec ID : S_HDMV/PGS

  197. Codec ID/Info : Picture based subtitle format used on BDs/HD-DVDs

  198. Duration : 2 h 20 min

  199. Bit rate : 105 kb/s

  200. Count of elements : 4588

  201. Stream size : 105 MiB (1%)

  202. Title : 导评简体中文

  203. Language : Chinese

  204. Default : No

  205. Forced : No


  206. Text #6

  207. ID : 12

  208. Format : PGS

  209. Muxing mode : zlib

  210. Codec ID : S_HDMV/PGS

  211. Codec ID/Info : Picture based subtitle format used on BDs/HD-DVDs

  212. Duration : 2 h 18 min

  213. Bit rate : 83.2 kb/s

  214. Count of elements : 4188

  215. Stream size : 82.2 MiB (1%)

  216. Title : 简体中文特效

  217. Language : Chinese

  218. Default : No

  219. Forced : No


  220. Text #7

  221. ID : 13

  222. Format : PGS

  223. Muxing mode : zlib

  224. Codec ID : S_HDMV/PGS

  225. Codec ID/Info : Picture based subtitle format used on BDs/HD-DVDs

  226. Duration : 2 h 18 min

  227. Bit rate : 111 kb/s

  228. Count of elements : 4188

  229. Stream size : 109 MiB (1%)

  230. Title : 简英双语特效

  231. Language : Chinese

  232. Default : No

  233. Forced : No


  234. Text #8

  235. ID : 14

  236. Format : PGS

  237. Muxing mode : zlib

  238. Codec ID : S_HDMV/PGS

  239. Codec ID/Info : Picture based subtitle format used on BDs/HD-DVDs

  240. Duration : 2 h 18 min

  241. Bit rate : 83.2 kb/s

  242. Count of elements : 4188

  243. Stream size : 82.2 MiB (1%)

  244. Title : 原盘简体中文

  245. Language : Chinese

  246. Default : No

  247. Forced : No


  248. Text #9

  249. ID : 15

  250. Format : PGS

  251. Muxing mode : zlib

  252. Codec ID : S_HDMV/PGS

  253. Codec ID/Info : Picture based subtitle format used on BDs/HD-DVDs

  254. Duration : 2 h 17 min

  255. Bit rate : 23.1 kb/s

  256. Count of elements : 3482

  257. Stream size : 22.7 MiB (0%)

  258. Title : 原盘繁体中文

  259. Language : Chinese

  260. Default : No

  261. Forced : No


  262. Menu

  263. 00:00:00.000 : en:00:00:00.000

  264. 00:04:41.114 : en:00:04:41.114

  265. 00:06:40.817 : en:00:06:40.817

  266. 00:10:08.316 : en:00:10:08.316

  267. 00:13:47.076 : en:00:13:47.076

  268. 00:18:00.913 : en:00:18:00.913

  269. 00:23:44.256 : en:00:23:44.256

  270. 00:29:02.074 : en:00:29:02.074

  271. 00:33:33.845 : en:00:33:33.845

  272. 00:38:51.913 : en:00:38:51.913

  273. 00:41:07.256 : en:00:41:07.256

  274. 00:42:41.642 : en:00:42:41.642

  275. 00:46:15.398 : en:00:46:15.398

  276. 00:48:15.434 : en:00:48:15.434

  277. 00:51:22.538 : en:00:51:22.538

  278. 00:57:20.103 : en:00:57:20.103

  279. 01:00:28.458 : en:01:00:28.458

  280. 01:05:46.818 : en:01:05:46.818

  281. 01:07:17.659 : en:01:07:17.659

  282. 01:11:04.677 : en:01:11:04.677

  283. 01:13:54.221 : en:01:13:54.221

  284. 01:15:56.552 : en:01:15:56.552

  285. 01:21:09.239 : en:01:21:09.239

  286. 01:23:59.952 : en:01:23:59.952

  287. 01:29:27.279 : en:01:29:27.279

  288. 01:32:11.484 : en:01:32:11.484

  289. 01:35:38.149 : en:01:35:38.149

  290. 01:38:29.862 : en:01:38:29.862

  291. 01:40:39.367 : en:01:40:39.367

  292. 01:47:24.146 : en:01:47:24.146

  293. 01:50:46.640 : en:01:50:46.640

  294. 01:54:32.115 : en:01:54:32.115

  295. 02:00:36.521 : en:02:00:36.521

  296. 02:04:10.318 : en:02:04:10.318

  297. 02:05:51.377 : en:02:05:51.377

  298. 02:08:26.824 : en:02:08:26.824

  299. 02:10:14.515 : en:02:10:14.515

  300. 02:12:57.136 : en:02:12:57.136

  301. 02:16:28.722 : en:02:16:28.722

  302. 02:18:08.572 : en:02:18:08.572


复制代码



文件下载


除非特别注明,本文『肖申克的救赎[国英多音轨/简繁英双语特效字幕].The.Shawshank.Redemption.1994.BluRay.1080p.x265.10bit.5Audio-MiniHD 11.03GB』来源于互联网机器人自动抓取,非本站原创。 浮游电影网不对本文拥有版权,如有侵犯,请联系邮箱:fuyouu#yandex.com[#换成@]投诉。我们会在15个工作日内删除。 但烦请转载时请标明出处:“本文转载于『浮游电影网』,原文地址:https://www.fuyouu.com/22988.html

评论吧骚年!

发表你的见解   

昵称*

E-mail*(建议输入,以便收到博主回复的提示邮件)

验证码*

您可以使用eMule或eMule Mod(Windows)、aMule(Win、Linux、Mac)等软件下载eD2k链接。。
eMule收藏集(.emulecollection)文件是您选中的所有链接的列表文件。eMule可以直接下载它们。
按住SHIFT键选择可以选中多个选择框。
可用文件名和大小选择器来选择文件。
文件名选择器帮您根据文件名称或后缀来选择文件。不分大小写。
符号使用:
和:空格( )、+
不包含:-
或:|
转义:一对英文引号("");
匹配开头:^
匹配结尾:$
例如:
选中所有名称中包含有“eMule”或“0.49c”字眼,但不包含有“exe”字眼的:emule|0.49c -exe
选中所有名称的开头是“eMule”,结尾是“0.49c”的:^emule 0.49c$
选中所有名称中带有“eMule 0.49c”的(必须是“eMule 0.49c”,中间没有别的字符,不能是“eMule fake 0.49c”),需要转义:"emule 0.49c"
大小选择器帮您根据文件大小选择文件。