当前位置: 首页 >> 日韩电影 >> 菊次郎的夏天[中英字幕].Kikujiro.1999.BluRay.1080p.x265.10bit-MiniHD 3.24GB >> 正文

菊次郎的夏天[中英字幕].Kikujiro.1999.BluRay.1080p.x265.10bit-MiniHD 3.24GB

2023年01月05日 22:46:48     电影发布:来源于网络     电影分类:日韩电影     评论(0)    

◎标 题 菊次郎的夏天

◎译 名 菊次郎之夏 / Kikujirô no natsu / Kikujiro

◎片 名 菊次郎の夏

◎年 代 1999

◎产 地 日本

◎类 别 剧情 / 喜剧

◎语 言 日语

◎上映日期 2020-09-25(中国大陆) / 1999-05-20(戛纳电影节) / 1999-06-05(日本)

◎IMDb评分 7.7/10 (20977人评价)

◎IMDb链接 https://www.imdb.com/title/tt0199683/

◎豆瓣链接 https://movie.douban.com/subject/1293359/

◎片 长 121分钟

◎简 介

暑假到来,自幼丧父的小学三年级学生正男(关口雄介饰),如今和奶奶生活在一起,暑假特别无聊。他拿出母亲从外地寄回的信,准备自己一个人去爱知县丰桥市看望母亲。

邻居阿姨(岸本加世子饰)发现后,决定帮正男完成心愿。她拿出一笔钱做为旅费,还安排游手好闲的老公菊次郎(北野武饰)陪伴正男一起踏上寻母之途。可是在第一天,菊次郎就把老婆给的钱全部输光,于是两个人只好步行前往爱知。

一路搭顺风车,惹了不少麻烦后,菊次郎终于带着正男到了他母亲的家,但小男孩却十分沮丧。归途中,菊次郎努力安慰他,二人过得十分愉快,夏天就这么过去了。

  1. ##### MediaInfo ######

  2. General

  3. Unique ID : 221288578411550928655935498232859054013 (0xA67AA1447E2F649D91DF00E4DC6DCFBD)

  4. Complete name : Kikujiro.1999.BluRay.1080p.x265.10bit-MiniHD.mkv

  5. Format : Matroska

  6. Format version : Version 4

  7. File size : 3.23 GiB

  8. Duration : 2 h 1 min

  9. Overall bit rate : 3 804 kb/s

  10. Encoded date : UTC 2016-05-05 10:25:50

  11. Writing application : mkvmerge v7.5.0 ('Glass Culture') 64bit built on Jan 4 2015 16:48:44

  12. Writing library : libebml v1.3.1 + libmatroska v1.4.2


  13. Video

  14. ID : 1

  15. Format : HEVC

  16. Format/Info : High Efficiency Video Coding

  17. Codec ID : V_MPEGH/ISO/HEVC

  18. Duration : 2 h 1 min

  19. Bit rate : 3 408 kb/s

  20. Width : 1 920 pixels

  21. Height : 1 040 pixels

  22. Display aspect ratio : 1.85:1

  23. Frame rate mode : Constant

  24. Frame rate : 24.000 FPS

  25. Bits/(Pixel*Frame) : 0.071

  26. Stream size : 2.90 GiB (90%)

  27. Default : Yes

  28. Forced : No


  29. Audio

  30. ID : 2

  31. Format : AC-3

  32. Format/Info : Audio Coding 3

  33. Commercial name : Dolby Digital

  34. Codec ID : A_AC3

  35. Duration : 2 h 1 min

  36. Bit rate mode : Constant

  37. Bit rate : 320 kb/s

  38. Channel(s) : 2 channels

  39. Channel layout : L R

  40. Sampling rate : 48.0 kHz

  41. Frame rate : 31.250 FPS (1536 SPF)

  42. Compression mode : Lossy

  43. Stream size : 279 MiB (8%)

  44. Language : Japanese

  45. Service kind : Complete Main

  46. Default : Yes

  47. Forced : No


  48. Text #1

  49. ID : 3

  50. Format : PGS

  51. Muxing mode : zlib

  52. Codec ID : S_HDMV/PGS

  53. Codec ID/Info : Picture based subtitle format used on BDs/HD-DVDs

  54. Language : English

  55. Default : Yes

  56. Forced : No


  57. Text #2

  58. ID : 4

  59. Format : PGS

  60. Muxing mode : zlib

  61. Codec ID : S_HDMV/PGS

  62. Codec ID/Info : Picture based subtitle format used on BDs/HD-DVDs

  63. Language : Chinese

  64. Default : No

  65. Forced : No


  66. Text #3

  67. ID : 5

  68. Format : PGS

  69. Muxing mode : zlib

  70. Codec ID : S_HDMV/PGS

  71. Codec ID/Info : Picture based subtitle format used on BDs/HD-DVDs

  72. Language : Chinese

  73. Default : No

  74. Forced : No


  75. Text #4

  76. ID : 6

  77. Format : PGS

  78. Muxing mode : zlib

  79. Codec ID : S_HDMV/PGS

  80. Codec ID/Info : Picture based subtitle format used on BDs/HD-DVDs

  81. Language : Chinese

  82. Default : No

  83. Forced : No


  84. Text #5

  85. ID : 7

  86. Format : PGS

  87. Muxing mode : zlib

  88. Codec ID : S_HDMV/PGS

  89. Codec ID/Info : Picture based subtitle format used on BDs/HD-DVDs

  90. Language : Chinese

  91. Default : No

  92. Forced : No


  93. Menu

  94. 00:00:00.000 : :Chapter 01

  95. 00:05:05.333 : :Chapter 02

  96. 00:10:51.625 : :Chapter 03

  97. 00:15:37.625 : :Chapter 04

  98. 00:27:58.583 : :Chapter 05

  99. 00:35:13.083 : :Chapter 06

  100. 00:44:57.458 : :Chapter 07

  101. 00:54:51.166 : :Chapter 08

  102. 01:07:44.625 : :Chapter 09

  103. 01:13:31.750 : :Chapter 10

  104. 01:20:53.625 : :Chapter 11

  105. 01:27:00.125 : :Chapter 12

  106. 01:33:54.333 : :Chapter 13

  107. 01:43:39.916 : :Chapter 14

  108. 01:53:53.666 : :Chapter 15

  109. 01:58:36.875 : :Chapter 16


复制代码




文件下载


除非特别注明,本文『菊次郎的夏天[中英字幕].Kikujiro.1999.BluRay.1080p.x265.10bit-MiniHD 3.24GB』来源于互联网机器人自动抓取,非本站原创。 浮游电影网不对本文拥有版权,如有侵犯,请联系邮箱:fuyouu#yandex.com[#换成@]投诉。我们会在15个工作日内删除。 但烦请转载时请标明出处:“本文转载于『浮游电影网』,原文地址:https://www.fuyouu.com/22987.html

评论吧骚年!

发表你的见解   

昵称*

E-mail*(建议输入,以便收到博主回复的提示邮件)

验证码*

您可以使用eMule或eMule Mod(Windows)、aMule(Win、Linux、Mac)等软件下载eD2k链接。。
eMule收藏集(.emulecollection)文件是您选中的所有链接的列表文件。eMule可以直接下载它们。
按住SHIFT键选择可以选中多个选择框。
可用文件名和大小选择器来选择文件。
文件名选择器帮您根据文件名称或后缀来选择文件。不分大小写。
符号使用:
和:空格( )、+
不包含:-
或:|
转义:一对英文引号("");
匹配开头:^
匹配结尾:$
例如:
选中所有名称中包含有“eMule”或“0.49c”字眼,但不包含有“exe”字眼的:emule|0.49c -exe
选中所有名称的开头是“eMule”,结尾是“0.49c”的:^emule 0.49c$
选中所有名称中带有“eMule 0.49c”的(必须是“eMule 0.49c”,中间没有别的字符,不能是“eMule fake 0.49c”),需要转义:"emule 0.49c"
大小选择器帮您根据文件大小选择文件。