当前位置: 首页 >> 国产电影 >> 菊豆[国语音轨].Ju.Dou.1990.BluRay.1080p.x265.10bit-MiniHD 4.21GB >> 正文

菊豆[国语音轨].Ju.Dou.1990.BluRay.1080p.x265.10bit-MiniHD 4.21GB

2023年01月05日 22:46:10     电影发布:来源于网络     电影分类:国产电影     评论(0)    

◎标 题 菊豆

◎译 名 Ju Dou

◎年 代 1990

◎产 地 中国大陆 / 日本

◎类 别 剧情

◎语 言 汉语普通话

◎上映日期 1990-04-21(日本)

◎IMDb评分 7.6/10 (8559人评价)

◎IMDb链接 https://www.imdb.com/title/tt0099902/

◎豆瓣评分 8.2/10 (107998人评价)

◎豆瓣链接 https://movie.douban.com/subject/1299365/

◎片 长 95 分钟

◎导 演 张艺谋 Yimou Zhang

杨凤良 Fengliang Yang

◎编 剧 刘恒 Heng Liu

◎演 员 巩俐 Li Gong

李保田 Baotian Li

李纬 Wei Li

丛志军 Zhijun Cong

牛星丽 Xingli Niu

杨前斌 Qianbin Yang

贾兆冀 Zhaoji Jia

none Zhang Yi

德间康快 Yasuyoshi Tokuma

赵季平 Jiping Zhao

纪建民 Jianmin Ji

杨轮 Lun Yang

顾长卫 Changwei Gu

杜媛 Yuan Du

曹久平 Juiping Cao

张建群 Jianqun Zhang

夏儒今 Rujin Xia

孙伟 Wei Sun

李岚华 Lanhua Li

◎简 介

杨天青(李保田饰)的叔叔杨金山(李纬饰),是个有生理缺陷的染坊主,在折磨死两房太太后,为续香火,他又花大价钱买了个年轻漂亮的女人菊豆(巩俐饰),对其百般虐待。

年近四十而尚未娶亲的天青,对因叔叔每夜滥施淫威而痛苦哀叫的菊豆由怜生爱,两人私通,生得一子。金山喜出望外,以为己出,取名天白。但不久金山中风,半身不遂,菊豆与天青更加肆无忌惮,得知真相的金山想要报复,后却误坠染池丧命。按家族的规矩,天青要搬出染房,被迫分离的菊豆与天青只能暗地来往。

10多年后,天白长大,外人的闲言琐语使他分外仇恨生父……

  1. ##### MediaInfo ######

  2. General

  3. Unique ID : 183777474255519892661017333921244632642 (0x8A42410B350137EDB38C8C5FF40DD642)

  4. Complete name : Ju.Dou.1990.BluRay.1080p.x265.10bit-MiniHD.mkv

  5. Format : Matroska

  6. Format version : Version 4

  7. File size : 4.20 GiB

  8. Duration : 1 h 35 min

  9. Overall bit rate : 6 309 kb/s

  10. Encoded date : UTC 2017-01-11 04:59:30

  11. Writing application : mkvmerge v9.2.0 ('Photograph') 32bit

  12. Writing library : libebml v1.3.3 + libmatroska v1.4.4


  13. Video

  14. ID : 1

  15. Format : HEVC

  16. Format/Info : High Efficiency Video Coding

  17. Format profile : Main [email protected]@Main

  18. Codec ID : V_MPEGH/ISO/HEVC

  19. Duration : 1 h 35 min

  20. Bit rate : 5 735 kb/s

  21. Width : 1 442 pixels

  22. Height : 1 080 pixels

  23. Display aspect ratio : 4:3

  24. Frame rate mode : Constant

  25. Frame rate : 23.976 (24000/1001) FPS

  26. Color space : YUV

  27. Chroma subsampling : 4:2:0

  28. Bit depth : 10 bits

  29. Bits/(Pixel*Frame) : 0.154

  30. Stream size : 3.82 GiB (91%)

  31. Writing library : x265 2.2+5-e40db0bdde4a:[Windows][GCC 6.2.0][64 bit] 10bit

  32. Encoding settings : cpuid=1173503 / frame-threads=6 / numa-pools=36 / wpp / no-pmode / no-pme / no-psnr / no-ssim / log-level=2 / input-csp=1 / input-res=1442x1080 / interlace=0 / total-frames=137232 / level-idc=0 / high-tier=1 / uhd-bd=0 / ref=5 / no-allow-non-conformance / no-repeat-headers / annexb / no-aud / no-hrd / info / hash=0 / no-temporal-layers / no-open-gop / min-keyint=1 / keyint=360 / bframes=8 / b-adapt=2 / b-pyramid / bframe-bias=0 / rc-lookahead=60 / lookahead-slices=4 / scenecut=40 / no-intra-refresh / ctu=32 / min-cu-size=8 / rect / no-amp / max-tu-size=16 / tu-inter-depth=2 / tu-intra-depth=2 / limit-tu=0 / rdoq-level=2 / signhide / no-tskip / nr-intra=0 / nr-inter=0 / no-constrained-intra / no-strong-intra-smoothing / max-merge=3 / limit-refs=3 / limit-modes / me=3 / subme=5 / merange=25 / temporal-mvp / weightp / weightb / no-analyze-src-pics / deblock=-1:-1 / no-sao / no-sao-non-deblock / rd=4 / no-early-skip / rskip / no-fast-intra / no-tskip-fast / no-cu-lossless / b-intra / rdpenalty=1 / psy-rd=2.00 / psy-rdoq=5.00 / no-rd-refine / analysis-mode=0 / no-lossless / cbqpoffs=-2 / crqpoffs=-2 / rc=crf / crf=20.0 / qcomp=0.65 / qpstep=4 / stats-write=0 / stats-read=0 / ipratio=1.40 / pbratio=1.30 / aq-mode=3 / aq-strength=0.80 / cutree / zone-count=0 / no-strict-cbr / qg-size=16 / no-rc-grain / qpmax=69 / qpmin=0 / sar=0 / overscan=0 / videoformat=5 / range=0 / colorprim=1 / transfer=2 / colormatrix=2 / chromaloc=0 / display-window=0 / max-cll=0,0 / min-luma=0 / max-luma=1023 / log2-max-poc-lsb=8 / vui-timing-info / vui-hrd-info / slices=1 / opt-qp-pps / opt-ref-list-length-pps / no-multi-pass-opt-rps / scenecut-bias=0.05 / no-opt-cu-delta-qp

  33. Default : Yes

  34. Forced : No

  35. Color range : Limited

  36. Color primaries : BT.709


  37. Audio

  38. ID : 2

  39. Format : AC-3

  40. Format/Info : Audio Coding 3

  41. Commercial name : Dolby Digital

  42. Codec ID : A_AC3

  43. Duration : 1 h 35 min

  44. Bit rate mode : Constant

  45. Bit rate : 448 kb/s

  46. Channel(s) : 2 channels

  47. Channel layout : L R

  48. Sampling rate : 48.0 kHz

  49. Frame rate : 31.250 FPS (1536 SPF)

  50. Compression mode : Lossy

  51. Stream size : 306 MiB (7%)

  52. Language : Chinese

  53. Service kind : Complete Main

  54. Default : Yes

  55. Forced : No


  56. Menu

  57. 00:00:00.000 : en:Chapter 01

  58. 00:04:45.118 : en:Chapter 02

  59. 00:12:30.583 : en:Chapter 03

  60. 00:17:46.064 : en:Chapter 04

  61. 00:25:34.366 : en:Chapter 05

  62. 00:28:42.554 : en:Chapter 06

  63. 00:31:08.283 : en:Chapter 07

  64. 00:34:11.257 : en:Chapter 08

  65. 00:37:50.268 : en:Chapter 09

  66. 00:39:57.770 : en:Chapter 10

  67. 00:44:14.526 : en:Chapter 11

  68. 00:51:09.274 : en:Chapter 12

  69. 00:58:16.451 : en:Chapter 13

  70. 01:05:54.033 : en:Chapter 14

  71. 01:10:57.544 : en:Chapter 15

  72. 01:16:08.855 : en:Chapter 16

  73. 01:20:36.998 : en:Chapter 17

  74. 01:25:41.052 : en:Chapter 18

  75. 01:35:21.716 : en:Chapter 19


复制代码




文件下载


除非特别注明,本文『菊豆[国语音轨].Ju.Dou.1990.BluRay.1080p.x265.10bit-MiniHD 4.21GB』来源于互联网机器人自动抓取,非本站原创。 浮游电影网不对本文拥有版权,如有侵犯,请联系邮箱:fuyouu#yandex.com[#换成@]投诉。我们会在15个工作日内删除。 但烦请转载时请标明出处:“本文转载于『浮游电影网』,原文地址:https://www.fuyouu.com/22986.html

评论吧骚年!

发表你的见解   

昵称*

E-mail*(建议输入,以便收到博主回复的提示邮件)

验证码*

您可以使用eMule或eMule Mod(Windows)、aMule(Win、Linux、Mac)等软件下载eD2k链接。。
eMule收藏集(.emulecollection)文件是您选中的所有链接的列表文件。eMule可以直接下载它们。
按住SHIFT键选择可以选中多个选择框。
可用文件名和大小选择器来选择文件。
文件名选择器帮您根据文件名称或后缀来选择文件。不分大小写。
符号使用:
和:空格( )、+
不包含:-
或:|
转义:一对英文引号("");
匹配开头:^
匹配结尾:$
例如:
选中所有名称中包含有“eMule”或“0.49c”字眼,但不包含有“exe”字眼的:emule|0.49c -exe
选中所有名称的开头是“eMule”,结尾是“0.49c”的:^emule 0.49c$
选中所有名称中带有“eMule 0.49c”的(必须是“eMule 0.49c”,中间没有别的字符,不能是“eMule fake 0.49c”),需要转义:"emule 0.49c"
大小选择器帮您根据文件大小选择文件。