当前位置: 首页 >> 国产电影 >> 特战行动队[国语配音/中文字幕].Action.Team.Overlord.Flower.2022.1080p.WEB-DL.H264.AAC-MOMOWEB 0.67GB >> 正文

特战行动队[国语配音/中文字幕].Action.Team.Overlord.Flower.2022.1080p.WEB-DL.H264.AAC-MOMOWEB 0.67GB

2023年01月05日 22:36:04     电影发布:来源于网络     电影分类:国产电影     评论(0)    

◎标 题 特战行动队

◎年 代 2022

◎产 地 中国大陆

◎语 言 汉语普通话

◎上映日期 2022-12-26(中国大陆)

◎IMDb链接 https://www.imdb.com/title//

◎豆瓣链接 https://movie.douban.com/subject/36200931/

◎片 长 69

◎导 演 刘巴音 Bayin Liu

侯嵩松 Songsong Hou

◎演 员 李萌萌 Mengmeng Li

◎简 介

几个月前,GWS信息科技公司驻国外某市网络安全研发要员周墨离奇失踪,为了全方位保护重要信息安全和阻止外部侵入,陈优、美亚等人前往险地开启救助行动。

  1. ##### MediaInfo ######

  2. General

  3. Complete name : Action.Team.Overlord.Flower.2022.1080p.WEB-DL.H264.AAC-MOMOWEB.mp4

  4. Format : MPEG-4

  5. Format profile : Base Media

  6. Codec ID : isom (isom/iso2/avc1/mp41)

  7. File size : 686 MiB

  8. Duration : 1 h 9 min

  9. Overall bit rate : 1 379 kb/s

  10. Writing application : Lavf58.35.100


  11. Video

  12. ID : 1

  13. Format : AVC

  14. Format/Info : Advanced Video Codec

  15. Format profile : [email protected]

  16. Format settings : CABAC / 4 Ref Frames

  17. Format settings, CABAC : Yes

  18. Format settings, Reference frames : 4 frames

  19. Codec ID : avc1

  20. Codec ID/Info : Advanced Video Coding

  21. Duration : 1 h 9 min

  22. Bit rate : 1 280 kb/s

  23. Width : 1 920 pixels

  24. Height : 816 pixels

  25. Display aspect ratio : 2.35:1

  26. Frame rate mode : Variable

  27. Frame rate : 25.000 FPS

  28. Minimum frame rate : 24.993 FPS

  29. Maximum frame rate : 25.007 FPS

  30. Color space : YUV

  31. Chroma subsampling : 4:2:0

  32. Bit depth : 8 bits

  33. Scan type : Progressive

  34. Bits/(Pixel*Frame) : 0.033

  35. Stream size : 637 MiB (93%)

  36. Color range : Limited

  37. Color primaries : BT.709

  38. Transfer characteristics : BT.709

  39. Matrix coefficients : BT.709

  40. Codec configuration box : avcC


  41. Audio

  42. ID : 2

  43. Format : AAC LC

  44. Format/Info : Advanced Audio Codec Low Complexity

  45. Codec ID : mp4a-40-2

  46. Duration : 1 h 9 min

  47. Bit rate mode : Constant

  48. Bit rate : 93.4 kb/s

  49. Channel(s) : 2 channels

  50. Channel layout : L R

  51. Sampling rate : 48.0 kHz

  52. Frame rate : 46.875 FPS (1024 SPF)

  53. Compression mode : Lossy

  54. Stream size : 46.5 MiB (7%)

  55. Default : Yes

  56. Alternate group : 1


复制代码




文件下载


除非特别注明,本文『特战行动队[国语配音/中文字幕].Action.Team.Overlord.Flower.2022.1080p.WEB-DL.H264.AAC-MOMOWEB 0.67GB』来源于互联网机器人自动抓取,非本站原创。 浮游电影网不对本文拥有版权,如有侵犯,请联系邮箱:fuyouu#yandex.com[#换成@]投诉。我们会在15个工作日内删除。 但烦请转载时请标明出处:“本文转载于『浮游电影网』,原文地址:https://www.fuyouu.com/22983.html

评论吧骚年!

发表你的见解   

昵称*

E-mail*(建议输入,以便收到博主回复的提示邮件)

验证码*

您可以使用eMule或eMule Mod(Windows)、aMule(Win、Linux、Mac)等软件下载eD2k链接。。
eMule收藏集(.emulecollection)文件是您选中的所有链接的列表文件。eMule可以直接下载它们。
按住SHIFT键选择可以选中多个选择框。
可用文件名和大小选择器来选择文件。
文件名选择器帮您根据文件名称或后缀来选择文件。不分大小写。
符号使用:
和:空格( )、+
不包含:-
或:|
转义:一对英文引号("");
匹配开头:^
匹配结尾:$
例如:
选中所有名称中包含有“eMule”或“0.49c”字眼,但不包含有“exe”字眼的:emule|0.49c -exe
选中所有名称的开头是“eMule”,结尾是“0.49c”的:^emule 0.49c$
选中所有名称中带有“eMule 0.49c”的(必须是“eMule 0.49c”,中间没有别的字符,不能是“eMule fake 0.49c”),需要转义:"emule 0.49c"
大小选择器帮您根据文件大小选择文件。