当前位置: 首页 >> 国产电影 >> 您好,北京[中文字幕/国语音轨].Farewell.Beijing.2022.1080p.WEB-DL.H265.AAC-TAGWEB 1.50GB >> 正文

您好,北京[中文字幕/国语音轨].Farewell.Beijing.2022.1080p.WEB-DL.H265.AAC-TAGWEB 1.50GB

2023年01月05日 22:33:39     电影发布:来源于网络     电影分类:国产电影     评论(0)    

◎标 题 您好,北京

◎译 名 你好,北京 / 北京欢迎你 / Farewell Beijing

◎年 代 2022

◎产 地 中国大陆

◎类 别 剧情

◎语 言 汉语普通话

◎上映日期 2022-11-18(中国大陆) / 2022-08-12(北京国际电影节)

◎IMDb链接 https://www.imdb.com/title/tt16757480/

◎豆瓣链接 https://movie.douban.com/subject/35653109/

◎片 长 110分钟

◎导 演 曹茜茜 Xixi Cao

◎编 剧 曹茜茜 Xixi Cao

吴谦 Steven Q

汪剑秋 Jianqiu Wang

王琳 Lin Wang

任威龙 Weilong Ren

◎演 员 安泽豪 Zehao An

刘犇

李斐然 Feiran Li

海一天 Yitian Hai

果靖霖 Jinglin Guo

张晞临 Xilin Zhang

王茜华 Qianhua Wang

徐峥 Zheng Xu

白永成 Yongcheng Bai

沈晓海 Xiaohai Shen

孙逊 Xun Sun

傅浤鸣 Hongming Fu

李晟泽 Shengze Li

江平 Ping Jiang

王新 Xin Wang

李宜娟 Yijuan Li

曹茜茜 Xixi Cao

◎简 介

讲述了一位创业中年人,一位快递员和一位年轻的歌手,在北京奋斗生活的温暖励志感人故事。

  1. ##### MediaInfo ######

  2. General

  3. Complete name : Farewell.Beijing.2022.1080p.WEB-DL.H265.AAC-TAGWEB.mp4

  4. Format : MPEG-4

  5. Format profile : Base Media

  6. Codec ID : isom (isom/iso2/mp41)

  7. File size : 1.50 GiB

  8. Duration : 1 h 50 min

  9. Overall bit rate : 1 952 kb/s

  10. Writing application : Lavf58.45.100


  11. Video

  12. ID : 1

  13. Format : HEVC

  14. Format/Info : High Efficiency Video Coding

  15. Format profile : [email protected]@Main

  16. Codec ID : hev1

  17. Codec ID/Info : High Efficiency Video Coding

  18. Duration : 1 h 50 min

  19. Bit rate : 1 756 kb/s

  20. Width : 1 920 pixels

  21. Height : 808 pixels

  22. Display aspect ratio : 2.40:1

  23. Frame rate mode : Constant

  24. Frame rate : 24.000 FPS

  25. Color space : YUV

  26. Chroma subsampling : 4:2:0

  27. Bit depth : 8 bits

  28. Bits/(Pixel*Frame) : 0.047

  29. Stream size : 1.35 GiB (90%)

  30. Codec configuration box : hvcC


  31. Audio

  32. ID : 2

  33. Format : AAC LC

  34. Format/Info : Advanced Audio Codec Low Complexity

  35. Codec ID : mp4a-40-2

  36. Duration : 1 h 50 min

  37. Bit rate mode : Constant

  38. Bit rate : 192 kb/s

  39. Channel(s) : 2 channels

  40. Channel layout : L R

  41. Sampling rate : 44.1 kHz

  42. Frame rate : 43.066 FPS (1024 SPF)

  43. Compression mode : Lossy

  44. Stream size : 150 MiB (10%)

  45. Default : Yes

  46. Alternate group : 1


复制代码




文件下载


除非特别注明,本文『您好,北京[中文字幕/国语音轨].Farewell.Beijing.2022.1080p.WEB-DL.H265.AAC-TAGWEB 1.50GB』来源于互联网机器人自动抓取,非本站原创。 浮游电影网不对本文拥有版权,如有侵犯,请联系邮箱:fuyouu#yandex.com[#换成@]投诉。我们会在15个工作日内删除。 但烦请转载时请标明出处:“本文转载于『浮游电影网』,原文地址:https://www.fuyouu.com/22981.html

评论吧骚年!

发表你的见解   

昵称*

E-mail*(建议输入,以便收到博主回复的提示邮件)

验证码*

您可以使用eMule或eMule Mod(Windows)、aMule(Win、Linux、Mac)等软件下载eD2k链接。。
eMule收藏集(.emulecollection)文件是您选中的所有链接的列表文件。eMule可以直接下载它们。
按住SHIFT键选择可以选中多个选择框。
可用文件名和大小选择器来选择文件。
文件名选择器帮您根据文件名称或后缀来选择文件。不分大小写。
符号使用:
和:空格( )、+
不包含:-
或:|
转义:一对英文引号("");
匹配开头:^
匹配结尾:$
例如:
选中所有名称中包含有“eMule”或“0.49c”字眼,但不包含有“exe”字眼的:emule|0.49c -exe
选中所有名称的开头是“eMule”,结尾是“0.49c”的:^emule 0.49c$
选中所有名称中带有“eMule 0.49c”的(必须是“eMule 0.49c”,中间没有别的字符,不能是“eMule fake 0.49c”),需要转义:"emule 0.49c"
大小选择器帮您根据文件大小选择文件。