当前位置: 首页 >> 港台电影 >> 无限复活[国语配音/中文字幕].Second.Time.Around.2002.1080p.BluRay.DD5.1.2Audio.x265-10bit-BATHD 6.43GB >> 正文

无限复活[国语配音/中文字幕].Second.Time.Around.2002.1080p.BluRay.DD5.1.2Audio.x265-10bit-BATHD 6.43GB

2023年01月05日 09:00:23     电影发布:来源于网络     电影分类:港台电影     评论(0)    

◎标 题 无限复活

◎译 名 Second Time Around

◎年 代 2002

◎产 地 中国香港

◎类 别 剧情 / 爱情 / 科幻 / 奇幻

◎语 言 粤语 / 英语

◎上映日期 2002-01-11

◎IMDb评分 6.4/10 (356人评价)

◎IMDb链接 https://www.imdb.com/title/tt0286057/

◎豆瓣评分 7.2/10 (14721人评价)

◎豆瓣链接 https://movie.douban.com/subject/1305386/

◎片 长 Hong Kong: 99 分钟

◎导 演 刘镇伟 Jeffrey Lau

◎编 剧 刘镇伟 Jeffrey Lau

◎演 员 郑伊健 Ekin Cheng

张柏芝 Cecilia Cheung

关继威 Jonathan Ke Quan

活丽明 Annamarie Ameera

丁云山 Wan San Ding

杜琪峰 Johnnie To

赵增熹 Tsang-Hei Chiu

禇镇东 Anthony Chue

黄永明 Wing-ming Wong

余家安 Bruce Yu

刘静仪 Sylvia Liu

Josh Gallegos Josh Gallegos

◎简 介

李伯仁(郑伊健 饰)是澳门赌场的服务生,由于他技巧高超,所以两年来他的桌子一直赢钱,从未输过。不过,伯仁不甘心做一个小喽啰,希望能有朝一日去赌城拉斯维加斯风光。可是,当他把这个梦想告诉同伴,却遭到对方一阵奚落。偏偏此时,他又被女友抛弃,走投无路之际,他要同伴将保险箱的钱借给他做赌资,同伴开始并不同意,后被他慷慨激昂的演说打动,铤而走险。他们来到赌城,手风很顺,可到了终盘,却被一个长发男子击败。心灰意冷的伯仁接连遭遇不测。一场车祸后,伯仁在医院醒来,此时他见到了负责此案调查的美丽女干探提娜(张柏芝 饰)。在交往中,伯仁揭穿了提娜男友真面目,导致二人分手。与此同时,他们的命运竟然也因红番回头石而发生了翻转……

  1. ##### MediaInfo ######

  2. General

  3. Unique ID : 80270157421583163179916485971598184760 (0x3C637850BBB11F173F5E9F45E4891138)

  4. Complete name : Second.Time.Around.2002.1080p.BluRay.DD5.1.2Audio.x265-10bit-BATHD.mkv

  5. Format : Matroska

  6. Format version : Version 4

  7. File size : 6.43 GiB

  8. Duration : 1 h 38 min

  9. Overall bit rate : 9 311 kb/s

  10. Movie name : Second Time Around 2002 1080p BluRay DD5.1 2Audio x265-10bit-HDS

  11. Encoded date : UTC 2023-01-04 01:49:57

  12. Writing application : mkvmerge v67.0.0 ('Under Stars') 64-bit

  13. Writing library : libebml v1.4.2 + libmatroska v1.6.4


  14. Video

  15. ID : 1

  16. Format : HEVC

  17. Format/Info : High Efficiency Video Coding

  18. Format profile : Main [email protected]@High

  19. Codec ID : V_MPEGH/ISO/HEVC

  20. Duration : 1 h 38 min

  21. Bit rate : 7 995 kb/s

  22. Width : 1 920 pixels

  23. Height : 1 080 pixels

  24. Display aspect ratio : 16:9

  25. Frame rate mode : Constant

  26. Frame rate : 24.000 FPS

  27. Color space : YUV

  28. Chroma subsampling : 4:2:0

  29. Bit depth : 10 bits

  30. Bits/(Pixel*Frame) : 0.161

  31. Stream size : 5.52 GiB (86%)

  32. Title : [email protected]

  33. Writing library : x265 - H.265/HEVC codec

  34. Default : Yes

  35. Forced : No


  36. Audio #1

  37. ID : 2

  38. Format : AC-3

  39. Format/Info : Audio Coding 3

  40. Commercial name : Dolby Digital

  41. Codec ID : A_AC3

  42. Duration : 1 h 38 min

  43. Bit rate mode : Constant

  44. Bit rate : 640 kb/s

  45. Channel(s) : 6 channels

  46. Channel layout : L R C LFE Ls Rs

  47. Sampling rate : 48.0 kHz

  48. Frame rate : 31.250 FPS (1536 SPF)

  49. Compression mode : Lossy

  50. Stream size : 453 MiB (7%)

  51. Title : Mandarin

  52. Language : Chinese

  53. Service kind : Complete Main

  54. Default : Yes

  55. Forced : No


  56. Audio #2

  57. ID : 3

  58. Format : AC-3

  59. Format/Info : Audio Coding 3

  60. Commercial name : Dolby Digital

  61. Codec ID : A_AC3

  62. Duration : 1 h 38 min

  63. Bit rate mode : Constant

  64. Bit rate : 640 kb/s

  65. Channel(s) : 6 channels

  66. Channel layout : L R C LFE Ls Rs

  67. Sampling rate : 48.0 kHz

  68. Frame rate : 31.250 FPS (1536 SPF)

  69. Compression mode : Lossy

  70. Stream size : 453 MiB (7%)

  71. Title : Mandarin

  72. Language : Chinese

  73. Service kind : Complete Main

  74. Default : Yes

  75. Forced : No


  76. Text #1

  77. ID : 4

  78. Format : PGS

  79. Muxing mode : zlib

  80. Codec ID : S_HDMV/PGS

  81. Codec ID/Info : Picture based subtitle format used on BDs/HD-DVDs

  82. Duration : 1 h 32 min

  83. Bit rate : 37.1 kb/s

  84. Count of elements : 2156

  85. Stream size : 24.6 MiB (0%)

  86. Title : CHS

  87. Language : Chinese

  88. Default : Yes

  89. Forced : No


  90. Text #2

  91. ID : 5

  92. Format : PGS

  93. Muxing mode : zlib

  94. Codec ID : S_HDMV/PGS

  95. Codec ID/Info : Picture based subtitle format used on BDs/HD-DVDs

  96. Duration : 1 h 32 min

  97. Bit rate : 34.5 kb/s

  98. Count of elements : 2156

  99. Stream size : 22.9 MiB (0%)

  100. Title : CHS

  101. Language : Chinese

  102. Default : Yes

  103. Forced : No


  104. Menu

  105. 00:00:00.000 : en:第 01 章

  106. 00:07:31.292 : en:第 02 章

  107. 00:19:12.750 : en:第 03 章

  108. 00:24:48.833 : en:第 04 章

  109. 00:32:37.917 : en:第 05 章

  110. 00:37:03.625 : en:第 06 章

  111. 00:51:41.167 : en:第 07 章

  112. 00:58:56.792 : en:第 08 章

  113. 01:04:37.875 : en:第 09 章

  114. 01:13:45.333 : en:第 10 章

  115. 01:21:23.167 : en:第 11 章

  116. 01:32:54.833 : en:第 12 章


复制代码




文件下载


除非特别注明,本文『无限复活[国语配音/中文字幕].Second.Time.Around.2002.1080p.BluRay.DD5.1.2Audio.x265-10bit-BATHD 6.43GB』来源于互联网机器人自动抓取,非本站原创。 浮游电影网不对本文拥有版权,如有侵犯,请联系邮箱:fuyouu#yandex.com[#换成@]投诉。我们会在15个工作日内删除。 但烦请转载时请标明出处:“本文转载于『浮游电影网』,原文地址:https://www.fuyouu.com/22980.html

评论吧骚年!

发表你的见解   

昵称*

E-mail*(建议输入,以便收到博主回复的提示邮件)

验证码*

您可以使用eMule或eMule Mod(Windows)、aMule(Win、Linux、Mac)等软件下载eD2k链接。。
eMule收藏集(.emulecollection)文件是您选中的所有链接的列表文件。eMule可以直接下载它们。
按住SHIFT键选择可以选中多个选择框。
可用文件名和大小选择器来选择文件。
文件名选择器帮您根据文件名称或后缀来选择文件。不分大小写。
符号使用:
和:空格( )、+
不包含:-
或:|
转义:一对英文引号("");
匹配开头:^
匹配结尾:$
例如:
选中所有名称中包含有“eMule”或“0.49c”字眼,但不包含有“exe”字眼的:emule|0.49c -exe
选中所有名称的开头是“eMule”,结尾是“0.49c”的:^emule 0.49c$
选中所有名称中带有“eMule 0.49c”的(必须是“eMule 0.49c”,中间没有别的字符,不能是“eMule fake 0.49c”),需要转义:"emule 0.49c"
大小选择器帮您根据文件大小选择文件。