当前位置: 首页 >> 海外电影 >> 宿敌[简繁英字幕].Jana.Gana.Mana.2022.1080p.NF.WEB-DL.DDP.5.1.H.264-DreamHD 3.33GB >> 正文

宿敌[简繁英字幕].Jana.Gana.Mana.2022.1080p.NF.WEB-DL.DDP.5.1.H.264-DreamHD 3.33GB

2023年01月05日 08:59:43     电影发布:来源于网络     电影分类:海外电影     评论(0)    

◎标 题 宿敌

◎译 名 人民的意志

◎片 名 Jana Gana Mana

◎年 代 2022

◎产 地 印度

◎类 别 剧情

◎语 言 马拉雅拉姆语

◎上映日期 2022-04-28(印度)

◎IMDb评分 8.3/10 (11463人评价)

◎IMDb链接 https://www.imdb.com/title/tt13391710/

◎豆瓣评分 8.6/10 (18740人评价)

◎豆瓣链接 https://movie.douban.com/subject/35882880/

◎片 长 162分钟

◎演 员 普利特维拉吉·苏库玛兰 Prithviraj Sukumaran

玛玛塔·莫汉达斯 Mamta Mohandas

◎简 介

一名大学教授的残忍谋杀案引发了学生骚乱,一位警察展开调查的同时一名律师在法庭上寻求正义。

  1. ##### MediaInfo ######

  2. General

  3. Unique ID : 75665964399158532407368757538968849877 (0x38ECBC12B9B78A1B61D50432E0F84DD5)

  4. Complete name : Jana.Gana.Mana.2022.1080p.NF.WEB-DL.DDP.5.1.H.264-DreamHD.mkv

  5. Format : Matroska

  6. Format version : Version 4

  7. File size : 3.33 GiB

  8. Duration : 2 h 41 min

  9. Overall bit rate mode : Variable

  10. Overall bit rate : 2 952 kb/s

  11. Encoded date : UTC 2023-01-04 09:38:02

  12. Writing application : mkvmerge v71.1.0 ('Fortitude') 64-bit

  13. Writing library : libebml v1.4.4 + libmatroska v1.7.1


  14. Video

  15. ID : 1

  16. Format : AVC

  17. Format/Info : Advanced Video Codec

  18. Format profile : [email protected]

  19. Format settings : CABAC / 3 Ref Frames

  20. Format settings, CABAC : Yes

  21. Format settings, Reference frames : 3 frames

  22. Codec ID : V_MPEG4/ISO/AVC

  23. Duration : 2 h 41 min

  24. Bit rate mode : Variable

  25. Bit rate : 2 310 kb/s

  26. Nominal bit rate : 1 246 kb/s

  27. Maximum bit rate : 4 740 kb/s

  28. Width : 1 920 pixels

  29. Height : 1 080 pixels

  30. Display aspect ratio : 16:9

  31. Frame rate mode : Constant

  32. Frame rate : 24.000 FPS

  33. Color space : YUV

  34. Chroma subsampling : 4:2:0

  35. Bit depth : 8 bits

  36. Scan type : Progressive

  37. Bits/(Pixel*Frame) : 0.046

  38. Stream size : 2.60 GiB (78%)

  39. Writing library : x264 core 148 r2727 7d026e8

  40. Encoding settings : cabac=1 / ref=3 / deblock=1:0:0 / analyse=0x1:0x111 / me=umh / subme=10 / psy=1 / psy_rd=1.00:0.00 / mixed_ref=1 / me_range=24 / chroma_me=1 / trellis=2 / 8x8dct=0 / cqm=0 / deadzone=21,11 / fast_pskip=1 / chroma_qp_offset=-2 / threads=8 / lookahead_threads=1 / sliced_threads=0 / nr=0 / decimate=1 / interlaced=0 / bluray_compat=0 / stitchable=1 / constrained_intra=0 / bframes=2 / b_pyramid=0 / b_adapt=2 / b_bias=0 / direct=3 / weightb=1 / open_gop=0 / weightp=2 / keyint=250 / keyint_min=24 / scenecut=0 / intra_refresh=0 / rc_lookahead=48 / rc=2pass / mbtree=1 / bitrate=1246 / ratetol=1.0 / qcomp=0.50 / qpmin=6 / qpmax=51 / qpstep=4 / cplxblur=20.0 / qblur=0.5 / vbv_maxrate=4740 / vbv_bufsize=6320 / nal_hrd=vbr / filler=0 / ip_ratio=1.40 / aq=1:1.00

  41. Language : Malayalam

  42. Default : Yes

  43. Forced : No


  44. Audio

  45. ID : 2

  46. Format : E-AC-3

  47. Format/Info : Enhanced AC-3

  48. Commercial name : Dolby Digital Plus

  49. Codec ID : A_EAC3

  50. Duration : 2 h 41 min

  51. Bit rate mode : Constant

  52. Bit rate : 640 kb/s

  53. Channel(s) : 6 channels

  54. Channel layout : L R C LFE Ls Rs

  55. Sampling rate : 48.0 kHz

  56. Frame rate : 31.250 FPS (1536 SPF)

  57. Compression mode : Lossy

  58. Stream size : 738 MiB (22%)

  59. Language : Malayalam

  60. Service kind : Complete Main

  61. Default : Yes

  62. Forced : No


  63. Text #1

  64. ID : 3

  65. Format : UTF-8

  66. Codec ID : S_TEXT/UTF8

  67. Codec ID/Info : UTF-8 Plain Text

  68. Duration : 2 h 36 min

  69. Bit rate : 91 b/s

  70. Count of elements : 1212

  71. Stream size : 105 KiB (0%)

  72. Title : Forced

  73. Language : Malayalam

  74. Default : Yes

  75. Forced : Yes


  76. Text #2

  77. ID : 4

  78. Format : UTF-8

  79. Codec ID : S_TEXT/UTF8

  80. Codec ID/Info : UTF-8 Plain Text

  81. Duration : 2 h 41 min

  82. Bit rate : 58 b/s

  83. Count of elements : 2447

  84. Stream size : 69.4 KiB (0%)

  85. Title : Simplified

  86. Language : Chinese

  87. Default : No

  88. Forced : No


  89. Text #3

  90. ID : 5

  91. Format : UTF-8

  92. Codec ID : S_TEXT/UTF8

  93. Codec ID/Info : UTF-8 Plain Text

  94. Duration : 2 h 41 min

  95. Bit rate : 61 b/s

  96. Count of elements : 2407

  97. Stream size : 72.9 KiB (0%)

  98. Title : Traditional

  99. Language : Chinese

  100. Default : No

  101. Forced : No


  102. Text #4

  103. ID : 6

  104. Format : UTF-8

  105. Codec ID : S_TEXT/UTF8

  106. Codec ID/Info : UTF-8 Plain Text

  107. Duration : 2 h 36 min

  108. Bit rate : 69 b/s

  109. Count of elements : 2406

  110. Stream size : 79.7 KiB (0%)

  111. Language : English

  112. Default : No

  113. Forced : No


  114. Text #5

  115. ID : 7

  116. Format : UTF-8

  117. Codec ID : S_TEXT/UTF8

  118. Codec ID/Info : UTF-8 Plain Text

  119. Duration : 2 h 41 min

  120. Bit rate : 160 b/s

  121. Count of elements : 2406

  122. Stream size : 190 KiB (0%)

  123. Language : Hindi

  124. Default : No

  125. Forced : No


  126. Menu

  127. 02:39:47.000 : en:End Credits


复制代码



文件下载


除非特别注明,本文『宿敌[简繁英字幕].Jana.Gana.Mana.2022.1080p.NF.WEB-DL.DDP.5.1.H.264-DreamHD 3.33GB』来源于互联网机器人自动抓取,非本站原创。 浮游电影网不对本文拥有版权,如有侵犯,请联系邮箱:fuyouu#yandex.com[#换成@]投诉。我们会在15个工作日内删除。 但烦请转载时请标明出处:“本文转载于『浮游电影网』,原文地址:https://www.fuyouu.com/22979.html

评论吧骚年!

发表你的见解   

昵称*

E-mail*(建议输入,以便收到博主回复的提示邮件)

验证码*

您可以使用eMule或eMule Mod(Windows)、aMule(Win、Linux、Mac)等软件下载eD2k链接。。
eMule收藏集(.emulecollection)文件是您选中的所有链接的列表文件。eMule可以直接下载它们。
按住SHIFT键选择可以选中多个选择框。
可用文件名和大小选择器来选择文件。
文件名选择器帮您根据文件名称或后缀来选择文件。不分大小写。
符号使用:
和:空格( )、+
不包含:-
或:|
转义:一对英文引号("");
匹配开头:^
匹配结尾:$
例如:
选中所有名称中包含有“eMule”或“0.49c”字眼,但不包含有“exe”字眼的:emule|0.49c -exe
选中所有名称的开头是“eMule”,结尾是“0.49c”的:^emule 0.49c$
选中所有名称中带有“eMule 0.49c”的(必须是“eMule 0.49c”,中间没有别的字符,不能是“eMule fake 0.49c”),需要转义:"emule 0.49c"
大小选择器帮您根据文件大小选择文件。