当前位置: 首页 >> 国产电影 >> 逃学神探[国语配音/中文字幕].Detective.Chen.2022.2160p.WEB-DL.H265.AAC-MOMOWEB 1.03GB >> 正文

逃学神探[国语配音/中文字幕].Detective.Chen.2022.2160p.WEB-DL.H265.AAC-MOMOWEB 1.03GB

2023年01月05日 08:58:49     电影发布:来源于网络     电影分类:国产电影     评论(0)    

◎标 题 逃学神探

◎年 代 2022

◎产 地 中国大陆

◎语 言 汉语普通话

◎上映日期 2022-12-15(中国大陆网络)

◎IMDb评分 6.1/10 (8人评价)

◎IMDb链接 https://www.imdb.com/title/tt24638018/

◎豆瓣评分 5.6/10 (4106人评价)

◎豆瓣链接 https://movie.douban.com/subject/35526061/

◎导 演 释小龙 Siu Lung Sik

◎演 员 释小龙 Siu Lung Sik

邹兆龙 Collin Chou

刘天佐 Tianzuo Liu

郝劭文 Shaowen Hao

徐少强 Norman Chu

黄乔 Qiao Huang

张皓宇 Haoyu Zhang

文晴 Wenqing Wei

蒋中炜 Zhongwei Jiang

祝海钰

白龙 Long Bai

◎简 介

初任上海警察队长的陈虎(释小龙 饰)接到一桩命案,死者何满君(白龙 饰)是上海政府军政部要员之子,也是圣马丁高中的一名学生。为了获得一手破案信息,陈虎不得不乔装学生混入学校。高中学习生活令不擅读书的陈虎苦不堪言,屡屡出糗沦为笑柄;与此同时他一边查案,一边与各方势力展开较量;何满君之死迷雾重重,一个又一个的嫌疑人出现又被排除,谋杀真相到底如何,真凶到底是谁?

  1. ##### MediaInfo ######

  2. General

  3. Unique ID : 255376084716495728268043510729289061790 (0xC01FA515C7B0D34A501425DB9DE1559E)

  4. Complete name : Detective.Chen.2022.2160p.WEB-DL.H265.AAC-MOMOWEB.mkv

  5. Format : Matroska

  6. Format version : Version 4

  7. File size : 1.03 GiB

  8. Duration : 1 h 41 min

  9. Overall bit rate : 1 456 kb/s

  10. Encoded date : UTC 2023-01-04 07:58:59

  11. Writing application : mkvmerge v58.0.0 ('Supper's Ready') 64-bit

  12. Writing library : libebml v1.4.2 + libmatroska v1.6.4


  13. Video

  14. ID : 1

  15. Format : HEVC

  16. Format/Info : High Efficiency Video Coding

  17. Format profile : [email protected]@Main

  18. Codec ID : V_MPEGH/ISO/HEVC

  19. Duration : 1 h 41 min

  20. Bit rate : 1 329 kb/s

  21. Width : 3 840 pixels

  22. Height : 1 608 pixels

  23. Display aspect ratio : 2.40:1

  24. Frame rate mode : Constant

  25. Frame rate : 24.000 FPS

  26. Color space : YUV

  27. Chroma subsampling : 4:2:0

  28. Bit depth : 8 bits

  29. Bits/(Pixel*Frame) : 0.009

  30. Stream size : 962 MiB (91%)

  31. Language : Chinese

  32. Default : Yes

  33. Forced : No

  34. Color range : Limited

  35. Color primaries : BT.709

  36. Transfer characteristics : BT.709

  37. Matrix coefficients : BT.709


  38. Audio

  39. ID : 2

  40. Format : AAC LC

  41. Format/Info : Advanced Audio Codec Low Complexity

  42. Codec ID : A_AAC-2

  43. Duration : 1 h 41 min

  44. Bit rate : 125 kb/s

  45. Channel(s) : 2 channels

  46. Channel layout : L R

  47. Sampling rate : 48.0 kHz

  48. Frame rate : 46.875 FPS (1024 SPF)

  49. Compression mode : Lossy

  50. Delay relative to video : -42 ms

  51. Stream size : 90.8 MiB (9%)

  52. Language : Chinese

  53. Default : Yes

  54. Forced : No


复制代码




文件下载


除非特别注明,本文『逃学神探[国语配音/中文字幕].Detective.Chen.2022.2160p.WEB-DL.H265.AAC-MOMOWEB 1.03GB』来源于互联网机器人自动抓取,非本站原创。 浮游电影网不对本文拥有版权,如有侵犯,请联系邮箱:fuyouu#yandex.com[#换成@]投诉。我们会在15个工作日内删除。 但烦请转载时请标明出处:“本文转载于『浮游电影网』,原文地址:https://www.fuyouu.com/22978.html

评论吧骚年!

发表你的见解   

昵称*

E-mail*(建议输入,以便收到博主回复的提示邮件)

验证码*

您可以使用eMule或eMule Mod(Windows)、aMule(Win、Linux、Mac)等软件下载eD2k链接。。
eMule收藏集(.emulecollection)文件是您选中的所有链接的列表文件。eMule可以直接下载它们。
按住SHIFT键选择可以选中多个选择框。
可用文件名和大小选择器来选择文件。
文件名选择器帮您根据文件名称或后缀来选择文件。不分大小写。
符号使用:
和:空格( )、+
不包含:-
或:|
转义:一对英文引号("");
匹配开头:^
匹配结尾:$
例如:
选中所有名称中包含有“eMule”或“0.49c”字眼,但不包含有“exe”字眼的:emule|0.49c -exe
选中所有名称的开头是“eMule”,结尾是“0.49c”的:^emule 0.49c$
选中所有名称中带有“eMule 0.49c”的(必须是“eMule 0.49c”,中间没有别的字符,不能是“eMule fake 0.49c”),需要转义:"emule 0.49c"
大小选择器帮您根据文件大小选择文件。