当前位置: 首页 >> 港台电影 >> 精武英雄[国语音轨/中文字幕].Fist.of.Legend.1994.BluRay.1080p.x265.10bit.2Audio-MiniHD 5.64GB >> 正文

精武英雄[国语音轨/中文字幕].Fist.of.Legend.1994.BluRay.1080p.x265.10bit.2Audio-MiniHD 5.64GB

2023年01月04日 20:36:47     电影发布:来源于网络     电影分类:港台电影     评论(0)    

◎标 题 精武英雄

◎译 名 Fist of Legend

◎年 代 1994

◎产 地 中国香港 / 中国大陆

◎类 别 剧情 / 动作

◎语 言 英语 / 粤语 / 日语 / 汉语普通话

◎上映日期 1994-12-22(中国香港)

◎IMDb评分 7.5/10 (23218人评价)

◎IMDb链接 https://www.imdb.com/title/tt0110200/

◎豆瓣评分 8.5/10 (113559人评价)

◎豆瓣链接 https://movie.douban.com/subject/1292895/

◎片 长 107分钟 / 98分钟(德国)

◎导 演 陈嘉上 Gordon Chan

◎编 剧 陈嘉上 Gordon Chan

叶广俭 Kwong Kim Yip

林纪陶 Jason Lam

◎演 员 李连杰 Jet Li

中山忍 Shinobu Nakayama

钱小豪 Siu-hou Chin

蔡少芬 Ada Choi

周比利 Billy Chow

秦沛 Paul Chun

仓田保昭 Yasuaki Kurata

袁祥仁 Cheung-Yan Yuen

楼学贤 Jackson Lau Hok-Yin

高桥利道 Toshimichi Takahashi

谭淑梅 Suk-mui Tam

彭子晴 Wailis Pang

张浚鸿 Chun Hung Cheung

李文标 Man Biu Lee

林刚 Gong Lam

麦咏麟 Gary Wing-Lun Mak

黄新 Sun Wong

卢庆辉 Marco Lo

刘思乐 Si-Lok Lau

邓泰和 Tai Wo Tang

林富伟 Fu-wai Lam

麦克·里德 Mike Leeder

谷垣健治 Kenji Tanigaki

江苗定 Miu Ting Kong

袁信义 Shun-Yee Yuen

◎标 签 李连杰 / 动作 / 香港 / 功夫 / 香港电影 / 武侠 / 经典 / 1994

◎简 介

20年代末,为完成师父的志愿,陈真(李连杰 饰)到东洋学先进技术,他喜欢着日本女孩山田光子(中山忍 饰)。因为师父霍元甲之死,陈真回到中国,协助师父之子霍廷恩(钱小豪 饰)主持精武门的业务,不料却引起了他的妒忌,师兄弟之间引发权力之争。

另一方面,陈真追查师父死因,怀疑是日军 军官藤田刚(周比利 饰)暗中使用慢性毒药杀死霍元甲。陈真请医生验尸,证实师父确系中毒而死。藤田刚恐阴谋败露,杀人嫁祸,展开了连场恶斗。不久,藤田刚挑战精武门,他诱使日本黑龙会总教头船越文夫向精武馆挑战。比武之日,双方开展了一场惊心动魄的决战。

  1. ##### MediaInfo ######

  2. General

  3. Unique ID : 226159968384099678235663188202584650135 (0xAA24D35625D4F1C2A7553F7799D5B197)

  4. Complete name : Fist.of.Legend.1994.BluRay.1080p.x265.10bit.2Audio-MiniHD.mkv

  5. Format : Matroska

  6. Format version : Version 4

  7. File size : 5.64 GiB

  8. Duration : 1 h 43 min

  9. Overall bit rate : 7 817 kb/s

  10. Encoded date : UTC 2016-10-18 10:21:53

  11. Writing application : mkvmerge v9.2.0 ('Photograph') 32bit

  12. Writing library : libebml v1.3.3 + libmatroska v1.4.4


  13. Video

  14. ID : 1

  15. Format : HEVC

  16. Format/Info : High Efficiency Video Coding

  17. Format profile : Main [email protected]@Main

  18. Codec ID : V_MPEGH/ISO/HEVC

  19. Duration : 1 h 43 min

  20. Bit rate : 7 213 kb/s

  21. Width : 1 920 pixels

  22. Height : 1 080 pixels

  23. Display aspect ratio : 16:9

  24. Frame rate mode : Constant

  25. Frame rate : 24.000 FPS

  26. Color space : YUV

  27. Chroma subsampling : 4:2:0

  28. Bit depth : 10 bits

  29. Bits/(Pixel*Frame) : 0.145

  30. Stream size : 5.20 GiB (92%)

  31. Writing library : x265 2.0+10-5a0e139e2938:[Windows][GCC 6.1.0][64 bit] 10bit

  32. Encoding settings : wpp / ctu=32 / min-cu-size=8 / max-tu-size=16 / tu-intra-depth=2 / tu-inter-depth=2 / me=3 / subme=5 / merange=25 / rect / no-amp / max-merge=3 / temporal-mvp / no-early-skip / rskip / rdpenalty=1 / no-tskip / no-tskip-fast / no-strong-intra-smoothing / no-lossless / no-cu-lossless / no-constrained-intra / no-fast-intra / no-open-gop / no-temporal-layers / interlace=0 / keyint=360 / min-keyint=1 / scenecut=40 / rc-lookahead=60 / lookahead-slices=4 / bframes=8 / bframe-bias=0 / b-adapt=2 / ref=5 / limit-refs=3 / limit-modes / weightp / weightb / aq-mode=3 / qg-size=16 / aq-strength=0.90 / cbqpoffs=-3 / crqpoffs=-3 / rd=4 / psy-rd=1.00 / rdoq-level=2 / psy-rdoq=5.00 / no-rd-refine / signhide / deblock=-1:-1 / no-sao / no-sao-non-deblock / b-pyramid / cutree / no-intra-refresh / rc=crf / crf=21.0 / qcomp=0.75 / qpmin=0 / qpmax=69 / qpstep=4 / ipratio=1.40 / pbratio=1.30

  33. Default : Yes

  34. Forced : No

  35. Color range : Limited

  36. Color primaries : BT.709


  37. Audio #1

  38. ID : 2

  39. Format : AC-3

  40. Format/Info : Audio Coding 3

  41. Commercial name : Dolby Digital

  42. Codec ID : A_AC3

  43. Duration : 1 h 43 min

  44. Bit rate mode : Constant

  45. Bit rate : 224 kb/s

  46. Channel(s) : 2 channels

  47. Channel layout : L R

  48. Sampling rate : 48.0 kHz

  49. Frame rate : 31.250 FPS (1536 SPF)

  50. Compression mode : Lossy

  51. Stream size : 165 MiB (3%)

  52. Language : Chinese

  53. Service kind : Complete Main

  54. Default : Yes

  55. Forced : No


  56. Audio #2

  57. ID : 3

  58. Format : AC-3

  59. Format/Info : Audio Coding 3

  60. Commercial name : Dolby Digital

  61. Codec ID : A_AC3

  62. Duration : 1 h 43 min

  63. Bit rate mode : Constant

  64. Bit rate : 224 kb/s

  65. Channel(s) : 2 channels

  66. Channel layout : L R

  67. Sampling rate : 48.0 kHz

  68. Frame rate : 31.250 FPS (1536 SPF)

  69. Compression mode : Lossy

  70. Stream size : 165 MiB (3%)

  71. Language : Chinese

  72. Service kind : Complete Main

  73. Default : No

  74. Forced : No


  75. Text #1

  76. ID : 4

  77. Format : PGS

  78. Muxing mode : zlib

  79. Codec ID : S_HDMV/PGS

  80. Codec ID/Info : Picture based subtitle format used on BDs/HD-DVDs

  81. Language : Chinese

  82. Default : Yes

  83. Forced : No


  84. Text #2

  85. ID : 5

  86. Format : PGS

  87. Muxing mode : zlib

  88. Codec ID : S_HDMV/PGS

  89. Codec ID/Info : Picture based subtitle format used on BDs/HD-DVDs

  90. Language : Chinese

  91. Default : No

  92. Forced : No


  93. Menu

  94. 00:00:00.000 : en:Chapter 01

  95. 00:02:22.207 : en:Chapter 02

  96. 00:07:53.207 : en:Chapter 03

  97. 00:10:06.207 : en:Chapter 04

  98. 00:16:52.832 : en:Chapter 05

  99. 00:23:10.833 : en:Chapter 06

  100. 00:25:25.165 : en:Chapter 07

  101. 00:27:47.208 : en:Chapter 08

  102. 00:31:00.375 : en:Chapter 09

  103. 00:35:07.083 : en:Chapter 10

  104. 00:40:32.083 : en:Chapter 11

  105. 00:44:52.541 : en:Chapter 12

  106. 00:51:03.333 : en:Chapter 13

  107. 00:53:49.583 : en:Chapter 14

  108. 01:03:27.000 : en:Chapter 15

  109. 01:05:57.208 : en:Chapter 16

  110. 01:16:45.207 : en:Chapter 17

  111. 01:18:52.791 : en:Chapter 18

  112. 01:23:15.082 : en:Chapter 19

  113. 01:24:53.791 : en:Chapter 20

  114. 01:27:55.207 : en:Chapter 21

  115. 01:36:43.832 : en:Chapter 22

  116. 01:39:07.791 : en:Chapter 23

  117. 01:40:53.416 : en:Chapter 24


复制代码



文件下载


除非特别注明,本文『精武英雄[国语音轨/中文字幕].Fist.of.Legend.1994.BluRay.1080p.x265.10bit.2Audio-MiniHD 5.64GB』来源于互联网机器人自动抓取,非本站原创。 浮游电影网不对本文拥有版权,如有侵犯,请联系邮箱:fuyouu#yandex.com[#换成@]投诉。我们会在15个工作日内删除。 但烦请转载时请标明出处:“本文转载于『浮游电影网』,原文地址:https://www.fuyouu.com/22977.html

评论吧骚年!

发表你的见解   

昵称*

E-mail*(建议输入,以便收到博主回复的提示邮件)

验证码*

您可以使用eMule或eMule Mod(Windows)、aMule(Win、Linux、Mac)等软件下载eD2k链接。。
eMule收藏集(.emulecollection)文件是您选中的所有链接的列表文件。eMule可以直接下载它们。
按住SHIFT键选择可以选中多个选择框。
可用文件名和大小选择器来选择文件。
文件名选择器帮您根据文件名称或后缀来选择文件。不分大小写。
符号使用:
和:空格( )、+
不包含:-
或:|
转义:一对英文引号("");
匹配开头:^
匹配结尾:$
例如:
选中所有名称中包含有“eMule”或“0.49c”字眼,但不包含有“exe”字眼的:emule|0.49c -exe
选中所有名称的开头是“eMule”,结尾是“0.49c”的:^emule 0.49c$
选中所有名称中带有“eMule 0.49c”的(必须是“eMule 0.49c”,中间没有别的字符,不能是“eMule fake 0.49c”),需要转义:"emule 0.49c"
大小选择器帮您根据文件大小选择文件。