当前位置: 首页 >> 港台电影 >> 绝代双骄[国粤多音轨/中英字幕].Handsome.Siblings.1992.KOR.BluRay.1080p.x265.10bit.FLAC.REPACK-MiniHD 4.97GB >> 正文

绝代双骄[国粤多音轨/中英字幕].Handsome.Siblings.1992.KOR.BluRay.1080p.x265.10bit.FLAC.REPACK-MiniHD 4.97GB

2023年01月04日 20:36:10     电影发布:来源于网络     电影分类:港台电影     评论(0)    

◎标 题 绝代双骄

◎译 名 武林争霸 / 正宗绝代双骄(台) / Handsome Siblings

◎片 名 絕代雙驕

◎年 代 1992

◎产 地 中国香港

◎类 别 喜剧 / 动作 / 武侠 / 古装

◎语 言 粤语

◎上映日期 1992-11-12(中国香港)

◎IMDb评分 5.8/10 (427人评价)

◎IMDb链接 https://www.imdb.com/title/tt0104572/

◎豆瓣评分 6.4/10 (22524人评价)

◎豆瓣链接 https://movie.douban.com/subject/1295987/

◎片 长 102 分钟

◎导 演 曾志伟 Eric Tsang

◎编 剧 司徒卓汉 Chuek-Hon Szeto

古龙 Lung Ku

◎演 员 刘德华 Andy Lau

林青霞 Brigitte Lin

张敏 Sharla Cheung

吴孟达 Man Tat Ng

顾美华 Josephine Koo

吴镇宇 Francis Ng

袁咏仪 Anita Yuen

叶德娴 Deanie Ip

张国柱 Kuo-Chu Chang

桑妮 Sonny Song

汪禹 Yue Wong

冯克安 Hark-On Fung

廖静妮 Jingni Liao

苗侨伟 Kiu Wai Miu

吴耀汉 Richard Ng

王青 Ching Wong

韩幸 San Hon

周锦祥 Gam Cheung Chow

敖志君 Peter Ngor

林国华 Ardy Lam

张东亮 Tony Cheung

陈俊杰 Henry Chan

刘静仪 Sylvia Liu

杨德毅 Jacky Yeung

萧若元 Stephen Siu

◎简 介

社会动荡不安的唐朝未年,每18年举行一次的武林赏善罚恶大会上,武林十大前辈选出移花宫主为担任赶杀十大恶人重任的武侠义士,不料却遭到突至的宫主夫君燕南天的阻止。宫主以一招之差落败燕南天后夫妻反目,立誓18年后将授一门人杀尽十恶。

为感谢燕南天的救命之恩,十大恶人担起扶养其儿子小鱼儿(刘德华)的重任,并欲把他培养成天下最恶之人。宫主则收养了花无缺(林青霞),边授其武功边灌输男人都该杀的思想。18年过去,十大恶人与宫主分别命小鱼儿与花无缺在新一届赏善罚恶大会上争夺盟主,两人的生活轨迹开始交叉。

  1. ##### MediaInfo ######

  2. General

  3. Unique ID : 281808767491340106190630931889089347099 (0xD40264F6C24C76101736F3DACD1AFE1B)

  4. Complete name : Handsome.Siblings.1992.KOR.BluRay.1080p.x265.10bit.FLAC.REPACK-MiniHD.mkv

  5. Format : Matroska

  6. Format version : Version 4

  7. File size : 4.97 GiB

  8. Duration : 1 h 42 min

  9. Overall bit rate mode : Variable

  10. Overall bit rate : 6 942 kb/s

  11. Movie name : Handsome Siblings (1992) BluRay 1080p - FRDS

  12. Encoded date : UTC 2022-06-19 09:10:29

  13. Writing application : mkvmerge v68.0.0 ('The Curtain') 64-bit

  14. Writing library : libebml v1.4.2 + libmatroska v1.6.4

  15. IMDB : tt0104572

  16. TMDB : movie/66161


  17. Video

  18. ID : 1

  19. Format : HEVC

  20. Format/Info : High Efficiency Video Coding

  21. Format profile : Main [email protected]@High

  22. Codec ID : V_MPEGH/ISO/HEVC

  23. Duration : 1 h 42 min

  24. Bit rate : 6 117 kb/s

  25. Width : 1 920 pixels

  26. Height : 1 080 pixels

  27. Display aspect ratio : 16:9

  28. Frame rate mode : Constant

  29. Frame rate : 24.000 FPS

  30. Color space : YUV

  31. Chroma subsampling : 4:2:0

  32. Bit depth : 10 bits

  33. Bits/(Pixel*Frame) : 0.123

  34. Stream size : 4.38 GiB (88%)

  35. Default : Yes

  36. Forced : No

  37. Color range : Limited

  38. Color primaries : BT.709

  39. Transfer characteristics : BT.709

  40. Matrix coefficients : BT.709


  41. Audio #1

  42. ID : 2

  43. Format : FLAC

  44. Format/Info : Free Lossless Audio Codec

  45. Codec ID : A_FLAC

  46. Duration : 1 h 42 min

  47. Bit rate mode : Variable

  48. Bit rate : 354 kb/s

  49. Channel(s) : 2 channels

  50. Channel layout : L R

  51. Sampling rate : 48.0 kHz

  52. Frame rate : 11.719 FPS (4096 SPF)

  53. Bit depth : 24 bits

  54. Compression mode : Lossless

  55. Stream size : 260 MiB (5%)

  56. Title : Mandarin

  57. Writing library : libFLAC 1.2.1 (UTC 2007-09-17)

  58. Language : Chinese

  59. Default : Yes

  60. Forced : No


  61. Audio #2

  62. ID : 3

  63. Format : AC-3

  64. Format/Info : Audio Coding 3

  65. Commercial name : Dolby Digital

  66. Codec ID : A_AC3

  67. Duration : 1 h 42 min

  68. Bit rate mode : Constant

  69. Bit rate : 192 kb/s

  70. Channel(s) : 2 channels

  71. Channel layout : L R

  72. Sampling rate : 48.0 kHz

  73. Frame rate : 31.250 FPS (1536 SPF)

  74. Compression mode : Lossy

  75. Stream size : 141 MiB (3%)

  76. Title : Mandarin From HK

  77. Language : Chinese

  78. Service kind : Complete Main

  79. Default : No

  80. Forced : No


  81. Audio #3

  82. ID : 4

  83. Format : AC-3

  84. Format/Info : Audio Coding 3

  85. Commercial name : Dolby Digital

  86. Codec ID : A_AC3

  87. Duration : 1 h 42 min

  88. Bit rate mode : Constant

  89. Bit rate : 192 kb/s

  90. Channel(s) : 2 channels

  91. Channel layout : L R

  92. Sampling rate : 48.0 kHz

  93. Frame rate : 31.250 FPS (1536 SPF)

  94. Compression mode : Lossy

  95. Stream size : 141 MiB (3%)

  96. Title : Cantonese

  97. Language : Chinese

  98. Service kind : Complete Main

  99. Default : Yes

  100. Forced : No


  101. Text #1

  102. ID : 5

  103. Format : PGS

  104. Muxing mode : zlib

  105. Codec ID : S_HDMV/PGS

  106. Codec ID/Info : Picture based subtitle format used on BDs/HD-DVDs

  107. Duration : 1 h 39 min

  108. Bit rate : 30.8 kb/s

  109. Count of elements : 2963

  110. Stream size : 22.0 MiB (0%)

  111. Title : TW

  112. Language : Chinese

  113. Default : Yes

  114. Forced : No


  115. Text #2

  116. ID : 6

  117. Format : PGS

  118. Muxing mode : zlib

  119. Codec ID : S_HDMV/PGS

  120. Codec ID/Info : Picture based subtitle format used on BDs/HD-DVDs

  121. Duration : 1 h 39 min

  122. Bit rate : 31.3 kb/s

  123. Count of elements : 2963

  124. Stream size : 22.4 MiB (0%)

  125. Title : TW

  126. Language : Chinese

  127. Default : Yes

  128. Forced : No


  129. Text #3

  130. ID : 7

  131. Format : PGS

  132. Muxing mode : zlib

  133. Codec ID : S_HDMV/PGS

  134. Codec ID/Info : Picture based subtitle format used on BDs/HD-DVDs

  135. Duration : 1 h 40 min

  136. Bit rate : 34.6 kb/s

  137. Count of elements : 1979

  138. Stream size : 24.8 MiB (0%)

  139. Language : Chinese

  140. Default : Yes

  141. Forced : No


  142. Text #4

  143. ID : 8

  144. Format : PGS

  145. Muxing mode : zlib

  146. Codec ID : S_HDMV/PGS

  147. Codec ID/Info : Picture based subtitle format used on BDs/HD-DVDs

  148. Duration : 1 h 40 min

  149. Bit rate : 37.7 kb/s

  150. Count of elements : 1980

  151. Stream size : 27.1 MiB (1%)

  152. Title : English

  153. Language : English

  154. Default : No

  155. Forced : Yes


  156. Text #5

  157. ID : 9

  158. Format : PGS

  159. Muxing mode : zlib

  160. Codec ID : S_HDMV/PGS

  161. Codec ID/Info : Picture based subtitle format used on BDs/HD-DVDs

  162. Duration : 1 h 40 min

  163. Bit rate : 34.9 kb/s

  164. Count of elements : 1985

  165. Stream size : 25.1 MiB (0%)

  166. Title : Korean

  167. Language : Korean

  168. Default : No

  169. Forced : No


  170. Menu

  171. 00:00:00.000 : en:Chapter 1

  172. 00:07:01.417 : en:Chapter 2

  173. 00:14:47.000 : en:Chapter 3

  174. 00:21:07.000 : en:Chapter 4

  175. 00:28:08.000 : en:Chapter 5

  176. 00:35:41.125 : en:Chapter 6

  177. 00:43:29.833 : en:Chapter 7

  178. 00:48:57.000 : en:Chapter 8

  179. 00:55:59.125 : en:Chapter 9

  180. 01:04:06.417 : en:Chapter 10

  181. 01:09:47.625 : en:Chapter 11

  182. 01:17:13.208 : en:Chapter 12

  183. 01:26:19.833 : en:Chapter 13

  184. 01:34:53.833 : en:Chapter 14

  185. 01:40:45.000 : en:Chapter 15


复制代码




文件下载


除非特别注明,本文『绝代双骄[国粤多音轨/中英字幕].Handsome.Siblings.1992.KOR.BluRay.1080p.x265.10bit.FLAC.REPACK-MiniHD 4.97GB』来源于互联网机器人自动抓取,非本站原创。 浮游电影网不对本文拥有版权,如有侵犯,请联系邮箱:fuyouu#yandex.com[#换成@]投诉。我们会在15个工作日内删除。 但烦请转载时请标明出处:“本文转载于『浮游电影网』,原文地址:https://www.fuyouu.com/22976.html

评论吧骚年!

发表你的见解   

昵称*

E-mail*(建议输入,以便收到博主回复的提示邮件)

验证码*

您可以使用eMule或eMule Mod(Windows)、aMule(Win、Linux、Mac)等软件下载eD2k链接。。
eMule收藏集(.emulecollection)文件是您选中的所有链接的列表文件。eMule可以直接下载它们。
按住SHIFT键选择可以选中多个选择框。
可用文件名和大小选择器来选择文件。
文件名选择器帮您根据文件名称或后缀来选择文件。不分大小写。
符号使用:
和:空格( )、+
不包含:-
或:|
转义:一对英文引号("");
匹配开头:^
匹配结尾:$
例如:
选中所有名称中包含有“eMule”或“0.49c”字眼,但不包含有“exe”字眼的:emule|0.49c -exe
选中所有名称的开头是“eMule”,结尾是“0.49c”的:^emule 0.49c$
选中所有名称中带有“eMule 0.49c”的(必须是“eMule 0.49c”,中间没有别的字符,不能是“eMule fake 0.49c”),需要转义:"emule 0.49c"
大小选择器帮您根据文件大小选择文件。