当前位置: 首页 >> 港台电影 >> 绝代双骄[国语音轨/中英字幕].The.Proud.Twins.1979.BluRay.1080p.x265.10bit.FLAC.REPACK-MiniHD 3.39GB >> 正文

绝代双骄[国语音轨/中英字幕].The.Proud.Twins.1979.BluRay.1080p.x265.10bit.FLAC.REPACK-MiniHD 3.39GB

2023年01月04日 20:35:26     电影发布:来源于网络     电影分类:港台电影     评论(0)    

◎标 题 绝代双骄

◎译 名 The Proud Twins

◎片 名 絕代雙驕

◎年 代 1979

◎产 地 中国香港

◎类 别 动作 / 武侠 / 古装

◎语 言 粤语

◎上映日期 1979-07-19

◎IMDb评分 6.2/10 (138人评价)

◎IMDb链接 https://www.imdb.com/title/tt0079376/

◎豆瓣评分 6.6/10 (1159人评价)

◎豆瓣链接 https://movie.douban.com/subject/1461923/

◎片 长 106分钟

◎导 演 楚原 Yuen Chor

◎编 剧 楚原 Yuen Chor

古龙 Lung Ku

◎演 员 傅声 Sheng Fu

伍卫国 Wai-Kwok Ng

文雪儿 Hsueh-erh Wen

石岗 Sek Gong

西瓜刨 Gwa-pau Sai

詹森 Shen Chan

元彬 Bun Yuen

黄元申 Yuen-San Wong

庄文清 Chong Man-Ching

米雪 Michelle Mee

杨志卿 Chih-Ching Yang

顾冠忠 Kuan-chung Ku

刘慧玲 Hui-Ling Liu

井淼 Miao Ching

邵逸夫 Run Run Shaw

少峰 Shao Feng Yu

陈景森 Ching-Shen Chen

吴绪清 Hsu-Ching Wu

彭雁联 Yen-Lien Peng

◎简 介

本片根据古龙名着改编,是楚原导演又一力作。天下第一剑客燕南天(王戎饰)手抱婴儿到恶人谷找江琴为义弟江枫报仇,怎知误入恶人圈套,不省人事。婴儿自小在恶人谷长大,取名小鱼儿(傅声饰)。小鱼儿从神医万春流口中得悉自己身世,出谷往找江琴报仇!途中邂逅铁心兰(文雪儿饰),除得一纸藏宝图外,更屡被移花宫弟子花无缺(伍卫国饰)追杀。原来花与鱼根本是一对双生儿,移花宫主因不满他们父亲江枫移情,遂与改名江别鹤的江琴(唐菁饰)设局令兄弟相残!阴谋败露,花鱼联手,终将江及宫主刺毙。

这是一个关于宝藏和孪生兄弟被人利用相互廝杀的故事,被认为是楚原执导得最佳影片之一,傅声的出演更是让影片变得独具特色,他在片中饰演的那位最终找出自己父母死亡真相的功夫少年的形象,给观众留下了深刻印象。可惜傅声在29岁时因车祸英年早逝,实在令人惋惜。

  1. ##### MediaInfo ######

  2. General

  3. Unique ID : 223656297648052922732520657843599905715 (0xA842A2D6BC82B311F7E71BA77B7B13B3)

  4. Complete name : The.Proud.Twins.1979.BluRay.1080p.x265.10bit.FLAC.REPACK-MiniHD.mkv

  5. Format : Matroska

  6. Format version : Version 4

  7. File size : 3.39 GiB

  8. Duration : 1 h 50 min

  9. Overall bit rate mode : Variable

  10. Overall bit rate : 4 373 kb/s

  11. Movie name : The Proud Twins [1979] BluRay 1080p - FRDS

  12. Encoded date : UTC 2022-06-08 09:13:03

  13. Writing application : mkvmerge v68.0.0 ('The Curtain') 64-bit

  14. Writing library : libebml v1.4.2 + libmatroska v1.6.4


  15. Video

  16. ID : 1

  17. Format : HEVC

  18. Format/Info : High Efficiency Video Coding

  19. Format profile : Main [email protected]@Main

  20. Codec ID : V_MPEGH/ISO/HEVC

  21. Duration : 1 h 50 min

  22. Bit rate : 4 118 kb/s

  23. Width : 1 920 pixels

  24. Height : 816 pixels

  25. Display aspect ratio : 2.35:1

  26. Frame rate mode : Constant

  27. Frame rate : 24.000 FPS

  28. Color space : YUV

  29. Chroma subsampling : 4:2:0

  30. Bit depth : 10 bits

  31. Bits/(Pixel*Frame) : 0.110

  32. Stream size : 3.19 GiB (94%)

  33. Title : The.Proud.Twins.1979.BluRay.1080p.x265.10bit.MNHD-FRDS

  34. Writing library : x265 2.7+15-b9f5b5d7bf95:[Windows][MSVC 1800][64 bit] 10bit

  35. Encoding settings : cpuid=1173503 / frame-threads=4 / numa-pools=16 / wpp / no-pmode / no-pme / no-psnr / no-ssim / log-level=2 / input-csp=1 / input-res=1920x816 / interlace=0 / total-frames=0 / level-idc=0 / high-tier=1 / uhd-bd=0 / ref=5 / no-allow-non-conformance / no-repeat-headers / annexb / no-aud / no-hrd / info / hash=0 / no-temporal-layers / no-open-gop / min-keyint=1 / keyint=360 / gop-lookahead=0 / bframes=8 / b-adapt=2 / b-pyramid / bframe-bias=0 / rc-lookahead=60 / lookahead-slices=4 / scenecut=40 / radl=0 / no-intra-refresh / ctu=32 / min-cu-size=8 / rect / no-amp / max-tu-size=16 / tu-inter-depth=2 / tu-intra-depth=2 / limit-tu=0 / rdoq-level=2 / dynamic-rd=0.00 / no-ssim-rd / signhide / no-tskip / nr-intra=0 / nr-inter=0 / no-constrained-intra / no-strong-intra-smoothing / max-merge=3 / limit-refs=3 / limit-modes / me=3 / subme=5 / merange=25 / temporal-mvp / weightp / weightb / no-analyze-src-pics / deblock=-1:-1 / no-sao / no-sao-non-deblock / rd=4 / no-early-skip / rskip / no-fast-intra / no-tskip-fast / no-cu-lossless / b-intra / no-splitrd-skip / rdpenalty=1 / psy-rd=2.00 / psy-rdoq=5.00 / no-rd-refine / no-lossless / cbqpoffs=-2 / crqpoffs=-2 / rc=crf / crf=18.0 / qcomp=0.60 / qpstep=4 / stats-write=0 / stats-read=0 / ipratio=1.40 / pbratio=1.30 / aq-mode=2 / aq-strength=0.90 / cutree / zone-count=0 / no-strict-cbr / qg-size=16 / no-rc-grain / qpmax=69 / qpmin=0 / no-const-vbv / sar=0 / overscan=0 / videoformat=5 / range=0 / colorprim=1 / transfer=2 / colormatrix=2 / chromaloc=0 / display-window=0 / max-cll=0,0 / min-luma=0 / max-luma=1023 / log2-max-poc-lsb=8 / vui-timing-info / vui-hrd-info / slices=1 / no-opt-qp-pps / no-opt-ref-list-length-pps / no-multi-pass-opt-rps / scenecut-bias=0.05 / no-opt-cu-delta-qp / no-aq-motion / no-hdr / no-hdr-opt / no-dhdr10-opt / no-idr-recovery-sei / analysis-reuse-level=5 / scale-factor=0 / refine-intra=0 / refine-inter=0 / refine-mv=0 / no-limit-sao / ctu-info=0 / no-lowpass-dct / refine-mv-type=0 / copy-pic=1 / max-ausize-factor=1.0 / no-dynamic-refine

  36. Language : Chinese

  37. Default : Yes

  38. Forced : No

  39. Color range : Limited

  40. Color primaries : BT.709


  41. Audio

  42. ID : 2

  43. Format : FLAC

  44. Format/Info : Free Lossless Audio Codec

  45. Codec ID : A_FLAC

  46. Duration : 1 h 50 min

  47. Bit rate mode : Variable

  48. Bit rate : 253 kb/s

  49. Channel(s) : 2 channels

  50. Channel layout : L R

  51. Sampling rate : 48.0 kHz

  52. Frame rate : 10.417 FPS (4608 SPF)

  53. Bit depth : 16 bits

  54. Compression mode : Lossless

  55. Stream size : 201 MiB (6%)

  56. Writing library : Lavf58.29.100

  57. Language : Chinese

  58. Default : Yes

  59. Forced : No


  60. Text #1

  61. ID : 3

  62. Format : UTF-8

  63. Codec ID : S_TEXT/UTF8

  64. Codec ID/Info : UTF-8 Plain Text

  65. Duration : 1 h 49 min

  66. Bit rate : 51 b/s

  67. Count of elements : 1505

  68. Stream size : 41.4 KiB (0%)

  69. Language : Chinese

  70. Default : Yes

  71. Forced : No


  72. Text #2

  73. ID : 4

  74. Format : UTF-8

  75. Codec ID : S_TEXT/UTF8

  76. Codec ID/Info : UTF-8 Plain Text

  77. Duration : 1 h 49 min

  78. Bit rate : 48 b/s

  79. Count of elements : 1696

  80. Stream size : 38.9 KiB (0%)

  81. Language : English

  82. Default : No

  83. Forced : No


  84. Menu

  85. 00:00:00.000 : en:00:00:00.000

  86. 00:10:12.583 : en:00:10:12.583

  87. 00:18:05.208 : en:00:18:05.208

  88. 00:30:35.250 : en:00:30:35.250

  89. 00:42:36.042 : en:00:42:36.042

  90. 00:54:22.583 : en:00:54:22.583

  91. 01:02:57.667 : en:01:02:57.667

  92. 01:14:13.958 : en:01:14:13.958

  93. 01:23:53.333 : en:01:23:53.333

  94. 01:33:19.417 : en:01:33:19.417

  95. 01:38:46.167 : en:01:38:46.167

  96. 01:49:11.250 : en:01:49:11.250


复制代码




文件下载



除非特别注明,本文『绝代双骄[国语音轨/中英字幕].The.Proud.Twins.1979.BluRay.1080p.x265.10bit.FLAC.REPACK-MiniHD 3.39GB』来源于互联网机器人自动抓取,非本站原创。 浮游电影网不对本文拥有版权,如有侵犯,请联系邮箱:fuyouu#yandex.com[#换成@]投诉。我们会在15个工作日内删除。 但烦请转载时请标明出处:“本文转载于『浮游电影网』,原文地址:https://www.fuyouu.com/22975.html

评论吧骚年!

发表你的见解   

昵称*

E-mail*(建议输入,以便收到博主回复的提示邮件)

验证码*

您可以使用eMule或eMule Mod(Windows)、aMule(Win、Linux、Mac)等软件下载eD2k链接。。
eMule收藏集(.emulecollection)文件是您选中的所有链接的列表文件。eMule可以直接下载它们。
按住SHIFT键选择可以选中多个选择框。
可用文件名和大小选择器来选择文件。
文件名选择器帮您根据文件名称或后缀来选择文件。不分大小写。
符号使用:
和:空格( )、+
不包含:-
或:|
转义:一对英文引号("");
匹配开头:^
匹配结尾:$
例如:
选中所有名称中包含有“eMule”或“0.49c”字眼,但不包含有“exe”字眼的:emule|0.49c -exe
选中所有名称的开头是“eMule”,结尾是“0.49c”的:^emule 0.49c$
选中所有名称中带有“eMule 0.49c”的(必须是“eMule 0.49c”,中间没有别的字符,不能是“eMule fake 0.49c”),需要转义:"emule 0.49c"
大小选择器帮您根据文件大小选择文件。