当前位置: 首页 >> 欧美电影 >> 菜单[中文字幕].The.Menu.2022.1080p.HMAX.WEB-DL.DDP5.1.x264-MOMOWEB 6.36GB >> 正文

菜单[中文字幕].The.Menu.2022.1080p.HMAX.WEB-DL.DDP5.1.x264-MOMOWEB 6.36GB

2023年01月04日 08:21:10     电影发布:来源于网络     电影分类:欧美电影     评论(0)    

◎标 题 菜单

◎译 名 五腥级盛宴(港) / 五星飨魇(台)

◎片 名 The Menu

◎年 代 2022

◎产 地 美国

◎类 别 喜剧 / 恐怖

◎语 言 英语

◎上映日期 2022-09-10(多伦多电影节) / 2022-11-18(美国)

◎IMDb评分 7.5/10 (48608人评价)

◎IMDb链接 https://www.imdb.com/title/tt9764362/

◎豆瓣评分 6.7/10 (4420人评价)

◎豆瓣链接 https://movie.douban.com/subject/30455615/

◎片 长 106分钟

◎导 演 马克·米罗 Mark Mylod

◎编 剧 塞斯·雷斯 Seth Reiss

威尔·崔西 Will Tracy

◎演 员 拉尔夫·费因斯 Ralph Fiennes

安雅·泰勒-乔伊 Anya Taylor-Joy

尼古拉斯·霍尔特 Nicholas Hoult

周洪 Hong Chau

珍妮·麦克蒂尔 Janet McTeer

保罗·安德斯坦 Paul Adelstein

约翰·雷吉扎莫 John Leguizamo

艾米·卡里诺 Aimee Carrero

里德·伯尼 Reed Birney

朱迪斯·赖特 Judith Light

丽贝卡·库恩 Rebecca Koon

杨罗布 Rob Yang

阿图罗·卡斯特罗 Arturo Castro

马克·圣·西尔 Mark St. Cyr

彼得·格罗西 Peter Grosz

克里斯蒂娜·布鲁卡托 Christina Brucato

亚当·阿尔德斯 Adam Aalderks

乔恩·保罗·艾伦 Jon Paul Allyn

梅尔·法尔 Mel Fair

克里斯蒂安·冈萨雷斯 Cristian Gonzalez

马修·康威尔 Matthew Cornwell

杰伊·沙迪克斯 Jay Shadix

Amy Westcott Amy Westcott

◎简 介

一对年轻夫妇去一个偏远岛屿上造访一家餐厅,据说这家餐厅的厨师会为人提供惊喜的菜单。

  1. ##### MediaInfo ######

  2. General

  3. Unique ID : 125009358915734167986774103535009089848 (0x5E0BED4090DA47D59835B5DB971F4938)

  4. Complete name : The.Menu.2022.1080p.HMAX.WEB-DL.DDP5.1.x264-MOMOWEB.mkv

  5. Format : Matroska

  6. Format version : Version 4

  7. File size : 6.36 GiB

  8. Duration : 1 h 47 min

  9. Overall bit rate mode : Variable

  10. Overall bit rate : 8 505 kb/s

  11. Movie name : The.Menu.2022.1080p.HMAX.WEB-DL.DDP5.1.x264-PTerWEB

  12. Encoded date : UTC 2023-01-03 08:21:36

  13. Writing application : mkvmerge v73.0.0 ('25 or 6 to 4') 64-bit

  14. Writing library : libebml v1.4.4 + libmatroska v1.7.1


  15. Video

  16. ID : 1

  17. Format : AVC

  18. Format/Info : Advanced Video Codec

  19. Format profile : [email protected]

  20. Format settings : CABAC / 4 Ref Frames

  21. Format settings, CABAC : Yes

  22. Format settings, Reference frames : 4 frames

  23. Codec ID : V_MPEG4/ISO/AVC

  24. Duration : 1 h 47 min

  25. Bit rate mode : Variable

  26. Bit rate : 8 250 kb/s

  27. Maximum bit rate : 12.4 Mb/s

  28. Width : 1 920 pixels

  29. Height : 816 pixels

  30. Display aspect ratio : 2.35:1

  31. Frame rate mode : Constant

  32. Frame rate : 23.976 (24000/1001) FPS

  33. Color space : YUV

  34. Chroma subsampling : 4:2:0

  35. Bit depth : 8 bits

  36. Scan type : Progressive

  37. Bits/(Pixel*Frame) : 0.220

  38. Stream size : 6.17 GiB (97%)

  39. Writing library : x264 core 157 r2965 861cec4

  40. Encoding settings : cabac=1 / ref=4 / deblock=1:0:0 / analyse=0x3:0x113 / me=hex / subme=7 / psy=1 / psy_rd=1.00:0.00 / mixed_ref=1 / me_range=16 / chroma_me=1 / trellis=1 / 8x8dct=1 / cqm=0 / deadzone=21,11 / fast_pskip=1 / chroma_qp_offset=-2 / threads=25 / lookahead_threads=4 / sliced_threads=0 / nr=0 / decimate=1 / interlaced=0 / bluray_compat=0 / constrained_intra=0 / bframes=3 / b_pyramid=2 / b_adapt=1 / b_bias=0 / direct=1 / weightb=1 / open_gop=0 / weightp=2 / keyint=96 / keyint_min=96 / scenecut=40 / intra_refresh=0 / rc_lookahead=40 / rc=2pass / mbtree=1 / bitrate=8250 / ratetol=1.0 / qcomp=0.60 / qpmin=0 / qpmax=69 / qpstep=4 / cplxblur=20.0 / qblur=0.5 / vbv_maxrate=12375 / vbv_bufsize=6187 / nal_hrd=vbr / filler=0 / ip_ratio=1.40 / aq=1:1.00

  41. Default : Yes

  42. Forced : No

  43. Color range : Limited

  44. Color primaries : BT.709

  45. Transfer characteristics : BT.709

  46. Matrix coefficients : BT.709


  47. Audio

  48. ID : 2

  49. Format : E-AC-3

  50. Format/Info : Enhanced AC-3

  51. Commercial name : Dolby Digital Plus

  52. Codec ID : A_EAC3

  53. Duration : 1 h 47 min

  54. Bit rate mode : Constant

  55. Bit rate : 256 kb/s

  56. Channel(s) : 6 channels

  57. Channel layout : L R C LFE Ls Rs

  58. Sampling rate : 48.0 kHz

  59. Frame rate : 31.250 FPS (1536 SPF)

  60. Compression mode : Lossy

  61. Delay relative to video : -83 ms

  62. Stream size : 196 MiB (3%)

  63. Language : English

  64. Service kind : Complete Main

  65. Default : Yes

  66. Forced : No


  67. Text #1

  68. ID : 3

  69. Format : UTF-8

  70. Codec ID : S_TEXT/UTF8

  71. Codec ID/Info : UTF-8 Plain Text

  72. Duration : 1 h 40 min

  73. Bit rate : 80 b/s

  74. Count of elements : 1898

  75. Stream size : 58.8 KiB (0%)

  76. Title : SDH

  77. Language : English

  78. Default : No

  79. Forced : No


  80. Text #2

  81. ID : 4

  82. Format : UTF-8

  83. Codec ID : S_TEXT/UTF8

  84. Codec ID/Info : UTF-8 Plain Text

  85. Duration : 1 h 40 min

  86. Bit rate : 73 b/s

  87. Count of elements : 1524

  88. Stream size : 54.2 KiB (0%)

  89. Title : SDH

  90. Language : Spanish

  91. Default : No

  92. Forced : No


复制代码




文件下载


除非特别注明,本文『菜单[中文字幕].The.Menu.2022.1080p.HMAX.WEB-DL.DDP5.1.x264-MOMOWEB 6.36GB』来源于互联网机器人自动抓取,非本站原创。 浮游电影网不对本文拥有版权,如有侵犯,请联系邮箱:fuyouu#yandex.com[#换成@]投诉。我们会在15个工作日内删除。 但烦请转载时请标明出处:“本文转载于『浮游电影网』,原文地址:https://www.fuyouu.com/22974.html

评论吧骚年!

发表你的见解   

昵称*

E-mail*(建议输入,以便收到博主回复的提示邮件)

验证码*

您可以使用eMule或eMule Mod(Windows)、aMule(Win、Linux、Mac)等软件下载eD2k链接。。
eMule收藏集(.emulecollection)文件是您选中的所有链接的列表文件。eMule可以直接下载它们。
按住SHIFT键选择可以选中多个选择框。
可用文件名和大小选择器来选择文件。
文件名选择器帮您根据文件名称或后缀来选择文件。不分大小写。
符号使用:
和:空格( )、+
不包含:-
或:|
转义:一对英文引号("");
匹配开头:^
匹配结尾:$
例如:
选中所有名称中包含有“eMule”或“0.49c”字眼,但不包含有“exe”字眼的:emule|0.49c -exe
选中所有名称的开头是“eMule”,结尾是“0.49c”的:^emule 0.49c$
选中所有名称中带有“eMule 0.49c”的(必须是“eMule 0.49c”,中间没有别的字符,不能是“eMule fake 0.49c”),需要转义:"emule 0.49c"
大小选择器帮您根据文件大小选择文件。