当前位置: 首页 >> 欧美电影 >> 玛蒂尔达:音乐剧[杜比视界版本][国语配音/中文字幕].Roald.Dahls.Matilda.The.Musical.2022.2160p.NF.WEB-DL.DDP.5.1.Atmos.DV.H. >> 正文

玛蒂尔达:音乐剧[杜比视界版本][国语配音/中文字幕].Roald.Dahls.Matilda.The.Musical.2022.2160p.NF.WEB-DL.DDP.5.1.Atmos.DV.H.

2023年01月04日 08:20:28     电影发布:来源于网络     电影分类:欧美电影     评论(0)    

玛蒂尔达:音乐剧[杜比视界版本][国语配音/中文字幕].Roald.Dahls.Matilda.The.Musical.2022.2160p.NF.WEB-DL.DDP.5.1.Atmos.DV.H.265-DreamHD 15.96GB

◎标 题 玛蒂尔达:音乐剧

◎译 名 玛蒂达:音乐剧 / 小魔女:音乐剧 / Matilda

◎片 名 Roald Dahl’s Matilda the Musical

◎年 代 2022

◎产 地 英国 / 美国

◎类 别 剧情 / 喜剧 / 歌舞 / 家庭 / 奇幻

◎语 言 英语

◎上映日期 2022-10-05(伦敦电影节) / 2022-11-25(英国) / 2022-12-09(美国) / 2022-12-25(美国网络)

◎IMDb评分 7.2/10 (11236人评价)

◎IMDb链接 https://www.imdb.com/title/tt3447590/

◎豆瓣评分 8.1/10 (173人评价)

◎豆瓣链接 https://movie.douban.com/subject/26287055/

◎片 长 117分钟

◎导 演 马修·沃楚斯 Matthew Warchus

◎编 剧 丹尼斯·凯利 Dennis Kelly

罗尔德·达尔 Roald Dahl

◎演 员 阿丽莎·威尔 Alisha Weir

艾玛·汤普森 Emma Thompson

拉什纳·林奇 Lashana Lynch

斯蒂芬·格拉汉姆 Stephen Graham

安德丽娅·赖斯伯勒 Andrea Riseborough

辛杜·维伊 Sindhu Vee

路易斯·马丁 Louis Martin

卡尔·斯宾塞 Carl Spencer

米沙·加伯特 Meesha Garbett

劳伦·亚历珊德拉 Lauren Alexandra

杰玛·吉亚诺斯 Jemma Geanaus

凯瑟琳·金斯利 Katherine Kingsley

瑟拉娜·苏玲·布利斯 Serrana Su-Ling Bliss

蒂姆·明钦 Tim Minchin

Rob Howell

◎简 介

改编自同名音乐剧,故事以罗尔德·达尔1988年的同名小说为基础,玛蒂尔达是个天资过人的女孩,她拥有敏锐的思维和生动的想象力,敢于改变自己的人生并取得不可思议的成果。

  1. ##### MediaInfo ######

  2. General

  3. Complete name : Roald.Dahls.Matilda.The.Musical.2022.2160p.NF.WEB-DL.DDP.5.1.Atmos.DV.H.265-DreamHD.mp4

  4. Format : MPEG-4

  5. Format profile : Base Media

  6. Codec ID : isom (isom)

  7. File size : 16.0 GiB

  8. Duration : 2 h 2 min

  9. Overall bit rate mode : Variable

  10. Overall bit rate : 18.7 Mb/s

  11. Encoded date : UTC 2023-01-03 05:21:09

  12. Tagged date : UTC 2023-01-03 05:21:09

  13. Writing application : GPAC-2.0-rev0-g418db414-master


  14. Video

  15. ID : 1

  16. Format : HEVC

  17. Format/Info : High Efficiency Video Coding

  18. Format profile : Main [email protected]@Main

  19. HDR format : Dolby Vision, Version 1.0, dvhe.05.06, BL+RPU

  20. Codec ID : dvhe

  21. Codec ID/Info : High Efficiency Video Coding with Dolby Vision

  22. Duration : 2 h 2 min

  23. Bit rate : 17.3 Mb/s

  24. Width : 3 840 pixels

  25. Height : 2 160 pixels

  26. Display aspect ratio : 16:9

  27. Frame rate mode : Constant

  28. Frame rate : 24.000 FPS

  29. Color space : YUV

  30. Chroma subsampling : 4:2:0

  31. Bit depth : 10 bits

  32. Bits/(Pixel*Frame) : 0.087

  33. Stream size : 14.8 GiB (92%)

  34. Default : No

  35. Encoded date : UTC 2023-01-03 05:08:11

  36. Tagged date : UTC 2023-01-03 05:22:25

  37. Color range : Full

  38. mdhd_Duration : 7323792

  39. Codec configuration box : hvcC+dvcC


  40. Audio #1

  41. ID : 2

  42. Format : E-AC-3 JOC

  43. Format/Info : Enhanced AC-3 with Joint Object Coding

  44. Commercial name : Dolby Digital Plus with Dolby Atmos

  45. Codec ID : ec-3

  46. Duration : 2 h 2 min

  47. Bit rate mode : Constant

  48. Bit rate : 768 kb/s

  49. Maximum bit rate : 811 kb/s

  50. Channel(s) : 6 channels

  51. Channel layout : L R C LFE Ls Rs

  52. Sampling rate : 48.0 kHz

  53. Frame rate : 31.250 FPS (1536 SPF)

  54. Compression mode : Lossy

  55. Stream size : 671 MiB (4%)

  56. Language : English

  57. Service kind : Complete Main

  58. Default : Yes

  59. Alternate group : 1

  60. Encoded date : UTC 2022-12-09 09:05:57

  61. Tagged date : UTC 2023-01-03 05:22:25

  62. Complexity index : Not present / 16

  63. Number of dynamic objects : 15

  64. Bed channel count : 1 channel

  65. Bed channel configuration : LFE


  66. Audio #2

  67. ID : 3

  68. Format : E-AC-3

  69. Format/Info : Enhanced AC-3

  70. Commercial name : Dolby Digital Plus

  71. Codec ID : ec-3

  72. Duration : 2 h 2 min

  73. Bit rate mode : Constant

  74. Bit rate : 640 kb/s

  75. Maximum bit rate : 676 kb/s

  76. Channel(s) : 6 channels

  77. Channel layout : L R C LFE Ls Rs

  78. Sampling rate : 48.0 kHz

  79. Frame rate : 31.250 FPS (1536 SPF)

  80. Compression mode : Lossy

  81. Stream size : 559 MiB (3%)

  82. Title : Taiwan

  83. Service kind : Complete Main

  84. Encoded date : UTC 2022-12-21 03:12:01

  85. Tagged date : UTC 2023-01-03 05:22:25


  86. Text #1

  87. ID : 4

  88. Format : Timed Text

  89. Codec ID : tx3g

  90. Duration : 1 h 52 min

  91. Bit rate mode : Variable

  92. Bit rate : 86 b/s

  93. Stream size : 70.6 KiB (0%)

  94. Title : SDH

  95. Language : English

  96. Forced : No

  97. Encoded date : UTC 2023-01-03 05:22:19

  98. Tagged date : UTC 2023-01-03 05:22:25


  99. Text #2

  100. ID : 5

  101. Format : Timed Text

  102. Codec ID : tx3g

  103. Duration : 1 h 56 min

  104. Bit rate mode : Variable

  105. Bit rate : 71 b/s

  106. Stream size : 60.9 KiB (0%)

  107. Title : Simplified

  108. Language : Chinese

  109. Forced : No

  110. Encoded date : UTC 2023-01-03 05:22:19

  111. Tagged date : UTC 2023-01-03 05:22:25


  112. Text #3

  113. ID : 6

  114. Format : Timed Text

  115. Codec ID : tx3g

  116. Duration : 1 h 56 min

  117. Bit rate mode : Variable

  118. Bit rate : 68 b/s

  119. Stream size : 58.2 KiB (0%)

  120. Title : Traditional

  121. Language : Chinese

  122. Forced : No

  123. Encoded date : UTC 2023-01-03 05:22:19

  124. Tagged date : UTC 2023-01-03 05:22:25


  125. Text #4

  126. ID : 7

  127. Format : Timed Text

  128. Codec ID : tx3g

  129. Duration : 1 h 56 min

  130. Bit rate mode : Variable

  131. Bit rate : 102 b/s

  132. Stream size : 87.4 KiB (0%)

  133. Language : Arabic

  134. Forced : No

  135. Encoded date : UTC 2023-01-03 05:22:19

  136. Tagged date : UTC 2023-01-03 05:22:25


  137. Text #5

  138. ID : 8

  139. Format : Timed Text

  140. Codec ID : tx3g

  141. Duration : 1 h 56 min

  142. Bit rate mode : Variable

  143. Bit rate : 65 b/s

  144. Stream size : 55.5 KiB (0%)

  145. Language : Catalan

  146. Forced : No

  147. Encoded date : UTC 2023-01-03 05:22:19

  148. Tagged date : UTC 2023-01-03 05:22:25


  149. Text #6

  150. ID : 9

  151. Format : Timed Text

  152. Codec ID : tx3g

  153. Duration : 1 h 56 min

  154. Bit rate mode : Variable

  155. Bit rate : 70 b/s

  156. Stream size : 59.5 KiB (0%)

  157. Language : Czech

  158. Forced : No

  159. Encoded date : UTC 2023-01-03 05:22:20

  160. Tagged date : UTC 2023-01-03 05:22:25


  161. Text #7

  162. ID : 10

  163. Format : Timed Text

  164. Codec ID : tx3g

  165. Duration : 1 h 56 min

  166. Bit rate mode : Variable

  167. Bit rate : 67 b/s

  168. Stream size : 57.4 KiB (0%)

  169. Language : Danish

  170. Forced : No

  171. Encoded date : UTC 2023-01-03 05:22:20

  172. Tagged date : UTC 2023-01-03 05:22:25


  173. Text #8

  174. ID : 11

  175. Format : Timed Text

  176. Codec ID : tx3g

  177. Duration : 1 h 56 min

  178. Bit rate mode : Variable

  179. Bit rate : 69 b/s

  180. Stream size : 59.2 KiB (0%)

  181. Language : German

  182. Forced : No

  183. Encoded date : UTC 2023-01-03 05:22:20

  184. Tagged date : UTC 2023-01-03 05:22:25


  185. Text #9

  186. ID : 12

  187. Format : Timed Text

  188. Codec ID : tx3g

  189. Duration : 1 h 56 min

  190. Bit rate mode : Variable

  191. Bit rate : 106 b/s

  192. Stream size : 90.4 KiB (0%)

  193. Language : Greek

  194. Forced : No

  195. Encoded date : UTC 2023-01-03 05:22:20

  196. Tagged date : UTC 2023-01-03 05:22:25


  197. Text #10

  198. ID : 13

  199. Format : Timed Text

  200. Codec ID : tx3g

  201. Duration : 1 h 56 min

  202. Bit rate mode : Variable

  203. Bit rate : 68 b/s

  204. Stream size : 58.2 KiB (0%)

  205. Title : Latin America

  206. Language : Spanish

  207. Forced : No

  208. Encoded date : UTC 2023-01-03 05:22:20

  209. Tagged date : UTC 2023-01-03 05:22:25


  210. Text #11

  211. ID : 14

  212. Format : Timed Text

  213. Codec ID : tx3g

  214. Duration : 1 h 56 min

  215. Bit rate mode : Variable

  216. Bit rate : 61 b/s

  217. Stream size : 51.9 KiB (0%)

  218. Language : Spanish

  219. Forced : No

  220. Encoded date : UTC 2023-01-03 05:22:21

  221. Tagged date : UTC 2023-01-03 05:22:25


  222. Text #12

  223. ID : 15

  224. Format : Timed Text

  225. Codec ID : tx3g

  226. Duration : 1 h 56 min

  227. Bit rate mode : Variable

  228. Bit rate : 68 b/s

  229. Stream size : 58.2 KiB (0%)

  230. Language : Basque

  231. Forced : No

  232. Encoded date : UTC 2023-01-03 05:22:21

  233. Tagged date : UTC 2023-01-03 05:22:25


  234. Text #13

  235. ID : 16

  236. Format : Timed Text

  237. Codec ID : tx3g

  238. Duration : 1 h 56 min

  239. Bit rate mode : Variable

  240. Bit rate : 63 b/s

  241. Stream size : 54.0 KiB (0%)

  242. Language : Finnish

  243. Forced : No

  244. Encoded date : UTC 2023-01-03 05:22:21

  245. Tagged date : UTC 2023-01-03 05:22:25


  246. Text #14

  247. ID : 17

  248. Format : Timed Text

  249. Codec ID : tx3g

  250. Duration : 1 h 56 min

  251. Bit rate mode : Variable

  252. Bit rate : 58 b/s

  253. Stream size : 49.8 KiB (0%)

  254. Language : fil

  255. Forced : No

  256. Encoded date : UTC 2023-01-03 05:22:21

  257. Tagged date : UTC 2023-01-03 05:22:25


  258. Text #15

  259. ID : 18

  260. Format : Timed Text

  261. Codec ID : tx3g

  262. Duration : 1 h 56 min

  263. Bit rate mode : Variable

  264. Bit rate : 64 b/s

  265. Stream size : 54.5 KiB (0%)

  266. Language : French

  267. Forced : No

  268. Encoded date : UTC 2023-01-03 05:22:21

  269. Tagged date : UTC 2023-01-03 05:22:25


  270. Text #16

  271. ID : 19

  272. Format : Timed Text

  273. Codec ID : tx3g

  274. Duration : 1 h 56 min

  275. Bit rate mode : Variable

  276. Bit rate : 58 b/s

  277. Stream size : 49.7 KiB (0%)

  278. Language : Galician

  279. Forced : No

  280. Encoded date : UTC 2023-01-03 05:22:21

  281. Tagged date : UTC 2023-01-03 05:22:25


  282. Text #17

  283. ID : 20

  284. Format : Timed Text

  285. Codec ID : tx3g

  286. Duration : 1 h 56 min

  287. Bit rate mode : Variable

  288. Bit rate : 100 b/s

  289. Stream size : 85.4 KiB (0%)

  290. Language : Hebrew

  291. Forced : No

  292. Encoded date : UTC 2023-01-03 05:22:22

  293. Tagged date : UTC 2023-01-03 05:22:25


  294. Text #18

  295. ID : 21

  296. Format : Timed Text

  297. Codec ID : tx3g

  298. Duration : 1 h 56 min

  299. Bit rate mode : Variable

  300. Bit rate : 151 b/s

  301. Stream size : 129 KiB (0%)

  302. Language : Hindi

  303. Forced : No

  304. Encoded date : UTC 2023-01-03 05:22:22

  305. Tagged date : UTC 2023-01-03 05:22:25


  306. Text #19

  307. ID : 22

  308. Format : Timed Text

  309. Codec ID : tx3g

  310. Duration : 1 h 56 min

  311. Bit rate mode : Variable

  312. Bit rate : 59 b/s

  313. Stream size : 50.0 KiB (0%)

  314. Language : Croatian

  315. Forced : No

  316. Encoded date : UTC 2023-01-03 05:22:22

  317. Tagged date : UTC 2023-01-03 05:22:25


  318. Text #20

  319. ID : 23

  320. Format : Timed Text

  321. Codec ID : tx3g

  322. Duration : 1 h 56 min

  323. Bit rate mode : Variable

  324. Bit rate : 68 b/s

  325. Stream size : 58.5 KiB (0%)

  326. Language : Hungarian

  327. Forced : No

  328. Encoded date : UTC 2023-01-03 05:22:22

  329. Tagged date : UTC 2023-01-03 05:22:25


  330. Text #21

  331. ID : 24

  332. Format : Timed Text

  333. Codec ID : tx3g

  334. Duration : 1 h 56 min

  335. Bit rate mode : Variable

  336. Bit rate : 67 b/s

  337. Stream size : 57.3 KiB (0%)

  338. Language : Indonesian

  339. Forced : No

  340. Encoded date : UTC 2023-01-03 05:22:22

  341. Tagged date : UTC 2023-01-03 05:22:25


  342. Text #22

  343. ID : 25

  344. Format : Timed Text

  345. Codec ID : tx3g

  346. Duration : 1 h 56 min

  347. Bit rate mode : Variable

  348. Bit rate : 67 b/s

  349. Stream size : 57.7 KiB (0%)

  350. Language : Italian

  351. Forced : No

  352. Encoded date : UTC 2023-01-03 05:22:23

  353. Tagged date : UTC 2023-01-03 05:22:25


  354. Text #23

  355. ID : 26

  356. Format : Timed Text

  357. Codec ID : tx3g

  358. Duration : 1 h 56 min

  359. Bit rate mode : Variable

  360. Bit rate : 69 b/s

  361. Stream size : 58.8 KiB (0%)

  362. Language : Japanese

  363. Forced : No

  364. Encoded date : UTC 2023-01-03 05:22:23

  365. Tagged date : UTC 2023-01-03 05:22:25


  366. Text #24

  367. ID : 27

  368. Format : Timed Text

  369. Codec ID : tx3g

  370. Duration : 1 h 56 min

  371. Bit rate mode : Variable

  372. Bit rate : 77 b/s

  373. Stream size : 65.7 KiB (0%)

  374. Language : Korean

  375. Forced : No

  376. Encoded date : UTC 2023-01-03 05:22:23

  377. Tagged date : UTC 2023-01-03 05:22:25


  378. Text #25

  379. ID : 28

  380. Format : Timed Text

  381. Codec ID : tx3g

  382. Duration : 1 h 56 min

  383. Bit rate mode : Variable

  384. Bit rate : 61 b/s

  385. Stream size : 52.6 KiB (0%)

  386. Language : Malay

  387. Forced : No

  388. Encoded date : UTC 2023-01-03 05:22:23

  389. Tagged date : UTC 2023-01-03 05:22:25


  390. Text #26

  391. ID : 29

  392. Format : Timed Text

  393. Codec ID : tx3g

  394. Duration : 1 h 50 min

  395. Bit rate mode : Variable

  396. Bit rate : 65 b/s

  397. Stream size : 52.9 KiB (0%)

  398. Language : Norwegian Bokmal

  399. Forced : No

  400. Encoded date : UTC 2023-01-03 05:22:23

  401. Tagged date : UTC 2023-01-03 05:22:25


  402. Text #27

  403. ID : 30

  404. Format : Timed Text

  405. Codec ID : tx3g

  406. Duration : 1 h 56 min

  407. Bit rate mode : Variable

  408. Bit rate : 64 b/s

  409. Stream size : 54.8 KiB (0%)

  410. Language : Dutch

  411. Forced : No

  412. Encoded date : UTC 2023-01-03 05:22:23

  413. Tagged date : UTC 2023-01-03 05:22:25


  414. Text #28

  415. ID : 31

  416. Format : Timed Text

  417. Codec ID : tx3g

  418. Duration : 1 h 56 min

  419. Bit rate mode : Variable

  420. Bit rate : 67 b/s

  421. Stream size : 57.1 KiB (0%)

  422. Language : Polish

  423. Forced : No

  424. Encoded date : UTC 2023-01-03 05:22:24

  425. Tagged date : UTC 2023-01-03 05:22:25


  426. Text #29

  427. ID : 32

  428. Format : Timed Text

  429. Codec ID : tx3g

  430. Duration : 1 h 56 min

  431. Bit rate mode : Variable

  432. Bit rate : 66 b/s

  433. Stream size : 56.2 KiB (0%)

  434. Title : Brazil

  435. Language : Portuguese

  436. Forced : No

  437. Encoded date : UTC 2023-01-03 05:22:24

  438. Tagged date : UTC 2023-01-03 05:22:25


  439. Text #30

  440. ID : 33

  441. Format : Timed Text

  442. Codec ID : tx3g

  443. Duration : 1 h 56 min

  444. Bit rate mode : Variable

  445. Bit rate : 65 b/s

  446. Stream size : 55.6 KiB (0%)

  447. Language : Portuguese

  448. Forced : No

  449. Encoded date : UTC 2023-01-03 05:22:24

  450. Tagged date : UTC 2023-01-03 05:22:25


  451. Text #31

  452. ID : 34

  453. Format : Timed Text

  454. Codec ID : tx3g

  455. Duration : 1 h 50 min

  456. Bit rate mode : Variable

  457. Bit rate : 79 b/s

  458. Stream size : 64.4 KiB (0%)

  459. Language : Romanian

  460. Forced : No

  461. Encoded date : UTC 2023-01-03 05:22:24

  462. Tagged date : UTC 2023-01-03 05:22:25


  463. Text #32

  464. ID : 35

  465. Format : Timed Text

  466. Codec ID : tx3g

  467. Duration : 1 h 56 min

  468. Bit rate mode : Variable

  469. Bit rate : 105 b/s

  470. Stream size : 89.8 KiB (0%)

  471. Language : Russian

  472. Forced : No

  473. Encoded date : UTC 2023-01-03 05:22:24

  474. Tagged date : UTC 2023-01-03 05:22:25


  475. Text #33

  476. ID : 36

  477. Format : Timed Text

  478. Codec ID : tx3g

  479. Duration : 1 h 50 min

  480. Bit rate mode : Variable

  481. Bit rate : 70 b/s

  482. Stream size : 56.4 KiB (0%)

  483. Language : Swedish

  484. Forced : No

  485. Encoded date : UTC 2023-01-03 05:22:24

  486. Tagged date : UTC 2023-01-03 05:22:25


  487. Text #34

  488. ID : 37

  489. Format : Timed Text

  490. Codec ID : tx3g

  491. Duration : 1 h 56 min

  492. Bit rate mode : Variable

  493. Bit rate : 159 b/s

  494. Stream size : 136 KiB (0%)

  495. Language : Thai

  496. Forced : No

  497. Encoded date : UTC 2023-01-03 05:22:25

  498. Tagged date : UTC 2023-01-03 05:22:25


  499. Text #35

  500. ID : 38

  501. Format : Timed Text

  502. Codec ID : tx3g

  503. Duration : 1 h 56 min

  504. Bit rate mode : Variable

  505. Bit rate : 68 b/s

  506. Stream size : 57.9 KiB (0%)

  507. Language : Turkish

  508. Forced : No

  509. Encoded date : UTC 2023-01-03 05:22:25

  510. Tagged date : UTC 2023-01-03 05:22:25


  511. Text #36

  512. ID : 39

  513. Format : Timed Text

  514. Codec ID : tx3g

  515. Duration : 1 h 56 min

  516. Bit rate mode : Variable

  517. Bit rate : 102 b/s

  518. Stream size : 87.3 KiB (0%)

  519. Language : Ukrainian

  520. Forced : No

  521. Encoded date : UTC 2023-01-03 05:22:25

  522. Tagged date : UTC 2023-01-03 05:22:25


  523. Text #37

  524. ID : 40

  525. Format : Timed Text

  526. Codec ID : tx3g

  527. Duration : 1 h 56 min

  528. Bit rate mode : Variable

  529. Bit rate : 89 b/s

  530. Stream size : 76.3 KiB (0%)

  531. Language : Vietnamese

  532. Forced : No

  533. Encoded date : UTC 2023-01-03 05:22:25

  534. Tagged date : UTC 2023-01-03 05:22:25


复制代码






文件下载


除非特别注明,本文『玛蒂尔达:音乐剧[杜比视界版本][国语配音/中文字幕].Roald.Dahls.Matilda.The.Musical.2022.2160p.NF.WEB-DL.DDP.5.1.Atmos.DV.H.』来源于互联网机器人自动抓取,非本站原创。 浮游电影网不对本文拥有版权,如有侵犯,请联系邮箱:fuyouu#yandex.com[#换成@]投诉。我们会在15个工作日内删除。 但烦请转载时请标明出处:“本文转载于『浮游电影网』,原文地址:https://www.fuyouu.com/22973.html

评论吧骚年!

发表你的见解   

昵称*

E-mail*(建议输入,以便收到博主回复的提示邮件)

验证码*

您可以使用eMule或eMule Mod(Windows)、aMule(Win、Linux、Mac)等软件下载eD2k链接。。
eMule收藏集(.emulecollection)文件是您选中的所有链接的列表文件。eMule可以直接下载它们。
按住SHIFT键选择可以选中多个选择框。
可用文件名和大小选择器来选择文件。
文件名选择器帮您根据文件名称或后缀来选择文件。不分大小写。
符号使用:
和:空格( )、+
不包含:-
或:|
转义:一对英文引号("");
匹配开头:^
匹配结尾:$
例如:
选中所有名称中包含有“eMule”或“0.49c”字眼,但不包含有“exe”字眼的:emule|0.49c -exe
选中所有名称的开头是“eMule”,结尾是“0.49c”的:^emule 0.49c$
选中所有名称中带有“eMule 0.49c”的(必须是“eMule 0.49c”,中间没有别的字符,不能是“eMule fake 0.49c”),需要转义:"emule 0.49c"
大小选择器帮您根据文件大小选择文件。