当前位置: 首页 >> 欧美电影 >> 猎杀本·拉登[中英字幕].Zero.Dark.Thirty.2012.BluRay.1080p.x265.10bit-MiniHD 3.70GB >> 正文

猎杀本·拉登[中英字幕].Zero.Dark.Thirty.2012.BluRay.1080p.x265.10bit-MiniHD 3.70GB

2023年01月01日 17:13:49     电影发布:来源于网络     电影分类:欧美电影     评论(0)    

◎标 题 猎杀本·拉登

◎译 名 刺杀本·拉登 / 追击拉登行动(港) / 00:30凌晨密令(台) / 杀死本·拉登 / 斩首行动 / 黑夜行动 / Kill Bin Laden

◎片 名 Zero Dark Thirty

◎年 代 2012

◎产 地 美国

◎类 别 剧情 / 惊悚 / 历史

◎语 言 英语 / 阿拉伯语

◎上映日期 2012-12-19(美国)

◎IMDb评分 7.4/10 (303561人评价)

◎IMDb链接 https://www.imdb.com/title/tt1790885/

◎豆瓣评分 7.7/10 (59761人评价)

◎豆瓣链接 https://movie.douban.com/subject/6430835/

◎片 长 157分钟

◎导 演 凯瑟琳·毕格罗 Kathryn Bigelow

◎编 剧 马克·鲍尔 Mark Boal

◎演 员 杰西卡·查斯坦 Jessica Chastain

杰森·克拉克 Jason Clarke

乔尔·埃哲顿 Joel Edgerton

詹妮弗·艾莉 Jennifer Ehle

马克·斯特朗 Mark Strong

凯尔·钱德勒 Kyle Chandler

埃德加·拉米雷兹 Édgar Ramírez

詹姆斯·甘多菲尼 James Gandolfini

克里斯·帕拉特 Chris Pratt

卡兰·马尔韦 Callan Mulvey

泰勒·金尼 Taylor Kinney

弗兰克·格里罗 Frank Grillo

约翰·巴罗曼 John Barrowman

马克·瓦雷 Mark Valley

森内姆·特米兹 Senem Temiz

克里斯托弗·斯坦利 Christopher Stanley

斯蒂芬·迪兰 Stephen Dillane

劳伦·肖 Lauren Shaw

勒达·卡代布 Reda Kateb

杰瑞米·斯特朗 Jeremy Strong

克里斯蒂安·孔特雷拉斯 Christian Contreras

帕克·索耶 Parker Sawyers

马丁·德兰尼 Martin Delaney

菲尔·索默维尔 Phil Somerville

斯科特·阿金斯 Scott Adkins

哈罗德·佩里诺 Harold Perrineau

法瑞斯·法瑞斯 Fares Fares

纳许·埃哲顿 Nash Edgerton

马克·杜普拉斯 Mark Duplass

杰西卡·科林斯 Jessica Collins

梅根·埃里森 Megan Ellison

凯瑟琳·毕格罗 Kathryn Bigelow

亚历山大·德斯普拉 Alexandre Desplat

格雷格·弗莱瑟 Greig Fraser

威廉·戈登伯格 William Goldenberg

杰瑞米·欣德尔 Jeremy Hindle

乔治·L·利特尔 George L. Little

◎简 介

2001年震惊世界的911事件后, 美国发动追捕和猎杀行动,目标是基地组织头号人物——奥萨马·本·拉登。玛雅(杰西卡·查斯坦 Jessica Chastain 饰)是美国中情局一位干练坚韧的女探员,她被派赴美国驻巴基斯坦使馆工作,唯一的任务就是寻找到本·拉登。尽管对当时局内使用酷刑审讯恐怖分子感到不忍,但她坚信获得重要信息的前提高于一切。她将人生的10年锲而不舍的投入到一件事上:从浩如烟海的反恐情报中寻找到一根稻草,然后用它压死一只叫做本·拉登的骆驼。最终她的努力获得回报——2011年5月1日,美国海豹突击队根据她的情报潜入巴基斯坦展开斩首行动,成功击毙奥萨马·本·拉登。而在这一切结束后的玛雅却不知道该何去何从……

由影史唯一一位奥斯卡女性导演凯瑟琳·毕格罗执导的《猎杀本·拉登》汇集前作《拆弹部队》的原班底,聚焦美国反恐十年,讲述世界上有史以来规模最...

  1. ##### MediaInfo ######

  2. General

  3. Unique ID : 194205550148139388701544499417826385094 (0x921AA0E16BBFAC8EBCBD1BD0BE46DCC6)

  4. Complete name : Zero.Dark.Thirty.2012.BluRay.1080p.x265.10bit-MiniHD.mkv

  5. Format : Matroska

  6. Format version : Version 4

  7. File size : 3.70 GiB

  8. Duration : 2 h 36 min

  9. Overall bit rate : 3 370 kb/s

  10. Encoded date : UTC 2016-10-25 14:02:43

  11. Writing application : mkvmerge v9.2.0 ('Photograph') 32bit

  12. Writing library : libebml v1.3.3 + libmatroska v1.4.4


  13. Video

  14. ID : 1

  15. Format : HEVC

  16. Format/Info : High Efficiency Video Coding

  17. Format profile : Main [email protected]@Main

  18. Codec ID : V_MPEGH/ISO/HEVC

  19. Duration : 2 h 36 min

  20. Bit rate : 2 663 kb/s

  21. Width : 1 920 pixels

  22. Height : 1 036 pixels

  23. Display aspect ratio : 1.85:1

  24. Frame rate mode : Constant

  25. Frame rate : 23.976 (24000/1001) FPS

  26. Color space : YUV

  27. Chroma subsampling : 4:2:0

  28. Bit depth : 10 bits

  29. Bits/(Pixel*Frame) : 0.056

  30. Stream size : 2.92 GiB (79%)

  31. Writing library : x265 2.0+10-5a0e139e2938:[Windows][GCC 6.1.0][64 bit] 10bit

  32. Encoding settings : wpp / ctu=32 / min-cu-size=8 / max-tu-size=16 / tu-intra-depth=2 / tu-inter-depth=2 / me=3 / subme=5 / merange=25 / rect / no-amp / max-merge=3 / temporal-mvp / no-early-skip / rskip / rdpenalty=1 / no-tskip / no-tskip-fast / no-strong-intra-smoothing / no-lossless / no-cu-lossless / no-constrained-intra / no-fast-intra / no-open-gop / no-temporal-layers / interlace=0 / keyint=360 / min-keyint=1 / scenecut=40 / rc-lookahead=60 / lookahead-slices=4 / bframes=8 / bframe-bias=0 / b-adapt=2 / ref=5 / limit-refs=3 / limit-modes / weightp / weightb / aq-mode=3 / qg-size=16 / aq-strength=0.90 / cbqpoffs=-3 / crqpoffs=-3 / rd=4 / psy-rd=1.00 / rdoq-level=2 / psy-rdoq=5.00 / no-rd-refine / signhide / deblock=-1:-1 / no-sao / no-sao-non-deblock / b-pyramid / cutree / no-intra-refresh / rc=crf / crf=21.0 / qcomp=0.70 / qpmin=0 / qpmax=69 / qpstep=4 / ipratio=1.40 / pbratio=1.30

  33. Default : Yes

  34. Forced : No

  35. Color range : Limited

  36. Color primaries : BT.709


  37. Audio

  38. ID : 2

  39. Format : AC-3

  40. Format/Info : Audio Coding 3

  41. Commercial name : Dolby Digital

  42. Codec ID : A_AC3

  43. Duration : 2 h 36 min

  44. Bit rate mode : Constant

  45. Bit rate : 640 kb/s

  46. Channel(s) : 6 channels

  47. Channel layout : L R C LFE Ls Rs

  48. Sampling rate : 48.0 kHz

  49. Frame rate : 31.250 FPS (1536 SPF)

  50. Compression mode : Lossy

  51. Stream size : 719 MiB (19%)

  52. Language : English

  53. Service kind : Complete Main

  54. Default : Yes

  55. Forced : No


  56. Text #1

  57. ID : 3

  58. Format : PGS

  59. Muxing mode : zlib

  60. Codec ID : S_HDMV/PGS

  61. Codec ID/Info : Picture based subtitle format used on BDs/HD-DVDs

  62. Language : English

  63. Default : Yes

  64. Forced : No


  65. Text #2

  66. ID : 4

  67. Format : PGS

  68. Muxing mode : zlib

  69. Codec ID : S_HDMV/PGS

  70. Codec ID/Info : Picture based subtitle format used on BDs/HD-DVDs

  71. Language : Chinese

  72. Default : No

  73. Forced : No


  74. Text #3

  75. ID : 5

  76. Format : PGS

  77. Muxing mode : zlib

  78. Codec ID : S_HDMV/PGS

  79. Codec ID/Info : Picture based subtitle format used on BDs/HD-DVDs

  80. Language : Chinese

  81. Default : No

  82. Forced : No


  83. Menu

  84. 00:00:00.000 : en:Chapter 01

  85. 00:09:50.298 : en:Chapter 02

  86. 00:15:42.650 : en:Chapter 03

  87. 00:23:05.884 : en:Chapter 04

  88. 00:31:23.047 : en:Chapter 05

  89. 00:41:35.201 : en:Chapter 06

  90. 00:50:30.694 : en:Chapter 07

  91. 01:04:11.805 : en:Chapter 08

  92. 01:13:37.704 : en:Chapter 09

  93. 01:20:27.656 : en:Chapter 10

  94. 01:34:05.848 : en:Chapter 11

  95. 01:46:46.191 : en:Chapter 12

  96. 01:53:17.332 : en:Chapter 13

  97. 02:02:37.725 : en:Chapter 14

  98. 02:14:08.874 : en:Chapter 15

  99. 02:22:34.587 : en:Chapter 16


复制代码




文件下载


除非特别注明,本文『猎杀本·拉登[中英字幕].Zero.Dark.Thirty.2012.BluRay.1080p.x265.10bit-MiniHD 3.70GB』来源于互联网机器人自动抓取,非本站原创。 浮游电影网不对本文拥有版权,如有侵犯,请联系邮箱:fuyouu#yandex.com[#换成@]投诉。我们会在15个工作日内删除。 但烦请转载时请标明出处:“本文转载于『浮游电影网』,原文地址:https://www.fuyouu.com/22970.html

评论吧骚年!

发表你的见解   

昵称*

E-mail*(建议输入,以便收到博主回复的提示邮件)

验证码*

您可以使用eMule或eMule Mod(Windows)、aMule(Win、Linux、Mac)等软件下载eD2k链接。。
eMule收藏集(.emulecollection)文件是您选中的所有链接的列表文件。eMule可以直接下载它们。
按住SHIFT键选择可以选中多个选择框。
可用文件名和大小选择器来选择文件。
文件名选择器帮您根据文件名称或后缀来选择文件。不分大小写。
符号使用:
和:空格( )、+
不包含:-
或:|
转义:一对英文引号("");
匹配开头:^
匹配结尾:$
例如:
选中所有名称中包含有“eMule”或“0.49c”字眼,但不包含有“exe”字眼的:emule|0.49c -exe
选中所有名称的开头是“eMule”,结尾是“0.49c”的:^emule 0.49c$
选中所有名称中带有“eMule 0.49c”的(必须是“eMule 0.49c”,中间没有别的字符,不能是“eMule fake 0.49c”),需要转义:"emule 0.49c"
大小选择器帮您根据文件大小选择文件。