当前位置: 首页 >> 国产电影 >> 茶馆[国语音轨/简英字幕].The.Teahouse.1982.BluRay.1080p.DTS-HD.MA.1.0.x265.10bit-ALT 8.98GB >> 正文

茶馆[国语音轨/简英字幕].The.Teahouse.1982.BluRay.1080p.DTS-HD.MA.1.0.x265.10bit-ALT 8.98GB

2022年12月31日 08:36:47     电影发布:来源于网络     电影分类:国产电影     评论(0)    

◎标 题 茶馆

◎译 名 The Teahouse

◎年 代 1982

◎产 地 中国大陆

◎类 别 剧情 / 历史

◎语 言 汉语普通话

◎上映日期 1982(中国大陆)

◎IMDb评分 8.3/10 (372人评价)

◎IMDb链接 https://www.imdb.com/title/tt1395030/

◎豆瓣评分 9.5/10 (125799人评价)

◎豆瓣链接 https://movie.douban.com/subject/1461403/

◎片 长 118分钟

◎导 演 谢添 Tian Xie

焦菊隐 Juyin Jiao

夏淳 Chun Xia

◎编 剧 老舍 Lao-She

◎演 员 于是之 Shizhi Yu

郑榕 Rong Zhen

蓝天野 Tianye Lan

英若诚 Ruocheng Ying

黄宗洛 Zongluo Huang

童超 Chao Tong

金昭 Zhao Jin

林连昆 Liankun Lin

牛星丽 Xingli Niu

谭宗尧 Zongyao Tan

童弟 Di Tong

吴淑昆 Shukun Wu

胡宗温 Zongwen Hu

程中 Zhong Cheng

李大千 Daqian Li

李源 Yuan Li

李翔 Xiang Li

张瞳 Tong Zhang

任宝贤 Baoxian Ren

尚丽娟 Lijuan Shang

米铁增 Tiezen Mi

田春奎 Chunkui Tian

冯增祥 Zengxiang Feng

雷飞 Fei Lei

林东升 Dongsheng Lin

孟瑾 Jin Meng

孙峻峰 Junfeng Sun

平原 Yuan Ping

曹世骧 Shixiang Cao

王大年 Danian Wang

王淑华 Shuhua Wang

张华 Hua Zhang

丁海涛 Haitao Ding

朱旭 Xu Zhu

孙敬修 Jingxiu Sun

董行佶 Xingji Dong

彭修文 Xiuwen Peng

郑煜元 Yuyuan Zheng

蒋国良 Guoliang Jiang

张来福 Laifu Zhang

赵秀琴 Xiuqin Zhao

张文启 Wenqi Zhang

杨允铭 Yunming Yang

杨予和 Yuhe Yang

王泽生 Zesheng Wang

王文冲 Wenchong Wang

关哉生 Zaisheng Guan

刘惠萍 Huiping Liu

郭桐 Tong Guo

王希钟 Xizhong Wang

王学朴 Xuepu Wang

王振荣 Zhenrong Wang

陈燕嬉 Yanxi Chen

刘万富 Wanfu Liu

冯钦 Qin Feng

王亚林 Yalin Wang

李绪文 Xuwen Li

◎简 介

世纪之交,古老的中国正迎来前所未有的巨大变革。老态龙钟的大清王朝摇摇欲坠,六君子的鲜血无法阻止历史车轮的滚动,老北京城的上空风云变幻,波谲云诡。王利发(于是之 饰),北京城内裕泰茶馆的年轻掌柜。他谨记父亲的教诲,体面周全地迎送四方宾客。小小的茶馆内,三教九流各色人等穿梭于此:提笼架鸟哀叹时运的松二爷(黄宗洛 饰);慨叹国之将亡的刚毅满人常四爷(郑榕 饰);一心谋求实业救国的秦仲义(蓝天野 饰);丧尽天良买卖人口的刘麻子(英若诚 饰);打算娶老婆的庞太监(童超 饰)……你方唱罢我登场,小小茶馆之内演尽世间的沧桑与凄凉……

本片根据老舍同名原著改编,并1983年第3届中国电影金鸡奖特别奖、文化部1982年优秀影片奖特别奖。

  1. ##### MediaInfo ######

  2. General

  3. Unique ID : 224521494922244583606258468685241202789 (0xA8E9445B9D6FC472CB2B3C051A753865)

  4. Complete name : The.Teahouse.1982.BluRay.1080p.DTS-HD.MA.1.0.x265.10bit-ALT.mkv

  5. Format : Matroska

  6. Format version : Version 4

  7. File size : 8.98 GiB

  8. Duration : 2 h 3 min

  9. Overall bit rate mode : Variable

  10. Overall bit rate : 10.4 Mb/s

  11. Encoded date : UTC 2022-12-30 05:30:57

  12. Writing application : mkvmerge v49.0.0 ('Sick Of Losing Soulmates') 64-bit

  13. Writing library : libebml v1.4.0 + libmatroska v1.6.1


  14. Video

  15. ID : 1

  16. Format : HEVC

  17. Format/Info : High Efficiency Video Coding

  18. Format profile : Main [email protected]@High

  19. Codec ID : V_MPEGH/ISO/HEVC

  20. Duration : 2 h 3 min

  21. Bit rate : 9 838 kb/s

  22. Width : 1 840 pixels

  23. Height : 1 080 pixels

  24. Display aspect ratio : 1.704

  25. Frame rate mode : Constant

  26. Frame rate : 24.000 FPS

  27. Color space : YUV

  28. Chroma subsampling : 4:2:0

  29. Bit depth : 10 bits

  30. Bits/(Pixel*Frame) : 0.206

  31. Stream size : 8.47 GiB (94%)

  32. Title : HEVC, [email protected]@High, 24 fps @ 9838 kbps

  33. Writing library : x265 3.5+40-6064f96a6:[Windows][GCC 12.2.0][64 bit] 10bit

  34. Encoding settings : cpuid=1111039 / frame-threads=4 / numa-pools=16 / wpp / no-pmode / no-pme / no-psnr / no-ssim / log-level=2 / input-csp=1 / input-res=1840x1080 / interlace=0 / total-frames=177571 / level-idc=51 / high-tier=1 / uhd-bd=0 / ref=5 / no-allow-non-conformance / no-repeat-headers / annexb / no-aud / no-eob / no-eos / no-hrd / info / hash=0 / no-temporal-layers / open-gop / min-keyint=24 / keyint=240 / gop-lookahead=0 / bframes=6 / b-adapt=2 / b-pyramid / bframe-bias=0 / rc-lookahead=40 / lookahead-slices=0 / scenecut=40 / no-hist-scenecut / radl=0 / no-splice / no-intra-refresh / ctu=32 / min-cu-size=8 / no-rect / no-amp / max-tu-size=32 / tu-inter-depth=3 / tu-intra-depth=3 / limit-tu=4 / rdoq-level=2 / dynamic-rd=0.00 / no-ssim-rd / signhide / no-tskip / nr-intra=0 / nr-inter=0 / no-constrained-intra / no-strong-intra-smoothing / max-merge=4 / limit-refs=1 / limit-modes / me=3 / subme=4 / merange=25 / temporal-mvp / no-frame-dup / no-hme / weightp / weightb / no-analyze-src-pics / deblock=-3:-3 / no-sao / no-sao-non-deblock / rd=6 / selective-sao=0 / no-early-skip / rskip / no-fast-intra / no-tskip-fast / no-cu-lossless / b-intra / no-splitrd-skip / rdpenalty=0 / psy-rd=2.00 / psy-rdoq=1.00 / no-rd-refine / no-lossless / cbqpoffs=-2 / crqpoffs=-2 / rc=crf / crf=17.0 / qcomp=0.65 / qpstep=4 / stats-write=0 / stats-read=0 / vbv-maxrate=80000 / vbv-bufsize=80000 / vbv-init=0.9 / min-vbv-fullness=50.0 / max-vbv-fullness=80.0 / crf-max=0.0 / crf-min=0.0 / ipratio=1.40 / pbratio=1.30 / aq-mode=2 / aq-strength=0.85 / cutree / zone-count=0 / no-strict-cbr / qg-size=32 / no-rc-grain / qpmax=69 / qpmin=0 / no-const-vbv / sar=1 / overscan=0 / videoformat=5 / range=0 / colorprim=1 / transfer=1 / colormatrix=1 / chromaloc=0 / display-window=0 / cll=0,0 / min-luma=0 / max-luma=1023 / log2-max-poc-lsb=8 / vui-timing-info / vui-hrd-info / slices=1 / no-opt-qp-pps / no-opt-ref-list-length-pps / no-multi-pass-opt-rps / scenecut-bias=0.05 / hist-threshold=0.03 / no-opt-cu-delta-qp / no-aq-motion / no-hdr10 / no-hdr10-opt / no-dhdr10-opt / no-idr-recovery-sei / analysis-reuse-level=0 / analysis-save-reuse-level=0 / analysis-load-reuse-level=0 / scale-factor=0 / refine-intra=0 / refine-inter=0 / refine-mv=1 / refine-ctu-distortion=0 / no-limit-sao / ctu-info=0 / no-lowpass-dct / refine-analysis-type=0 / copy-pic=1 / max-ausize-factor=1.0 / no-dynamic-refine / no-single-sei / no-hevc-aq / no-svt / no-field / qp-adaptation-range=1.00 / scenecut-aware-qp=0conformance-window-offsets / right=0 / bottom=0 / decoder-max-rate=0 / no-vbv-live-multi-pass

  35. Language : English

  36. Default : Yes

  37. Forced : No

  38. Color range : Limited

  39. Color primaries : BT.709

  40. Transfer characteristics : BT.709

  41. Matrix coefficients : BT.709


  42. Audio

  43. ID : 2

  44. Format : DTS XLL

  45. Format/Info : Digital Theater Systems

  46. Commercial name : DTS-HD Master Audio

  47. Codec ID : A_DTS

  48. Duration : 2 h 3 min

  49. Bit rate mode : Variable

  50. Bit rate : 499 kb/s

  51. Channel(s) : 1 channel

  52. Channel layout : C

  53. Sampling rate : 48.0 kHz

  54. Frame rate : 93.750 FPS (512 SPF)

  55. Bit depth : 16 bits

  56. Compression mode : Lossless

  57. Stream size : 440 MiB (5%)

  58. Title : Mandarin DTS-HD Master Audio 1.0 @ 500 kbps

  59. Language : Chinese

  60. Default : Yes

  61. Forced : No


  62. Text #1

  63. ID : 3

  64. Format : PGS

  65. Codec ID : S_HDMV/PGS

  66. Codec ID/Info : Picture based subtitle format used on BDs/HD-DVDs

  67. Duration : 1 h 58 min

  68. Bit rate : 33.5 kb/s

  69. Count of elements : 3779

  70. Stream size : 28.4 MiB (0%)

  71. Title : Chs/SUP 简体

  72. Language : Chinese

  73. Default : Yes

  74. Forced : No


  75. Text #2

  76. ID : 4

  77. Format : PGS

  78. Codec ID : S_HDMV/PGS

  79. Codec ID/Info : Picture based subtitle format used on BDs/HD-DVDs

  80. Duration : 1 h 58 min

  81. Bit rate : 51.1 kb/s

  82. Count of elements : 3779

  83. Stream size : 43.3 MiB (0%)

  84. Title : Eng/SUP

  85. Language : English

  86. Default : No

  87. Forced : No


  88. Menu

  89. 00:00:00.000 : en:第 01 章

  90. 00:14:10.375 : en:第 02 章

  91. 00:22:54.958 : en:第 03 章

  92. 00:34:51.458 : en:第 04 章

  93. 00:44:30.417 : en:第 05 章

  94. 00:55:34.375 : en:第 06 章

  95. 01:11:45.500 : en:第 07 章

  96. 01:18:51.792 : en:第 08 章

  97. 01:30:12.292 : en:第 09 章

  98. 01:37:32.208 : en:第 10 章

  99. 01:44:26.792 : en:第 11 章

  100. 01:56:53.917 : en:第 12 章


复制代码




文件下载


除非特别注明,本文『茶馆[国语音轨/简英字幕].The.Teahouse.1982.BluRay.1080p.DTS-HD.MA.1.0.x265.10bit-ALT 8.98GB』来源于互联网机器人自动抓取,非本站原创。 浮游电影网不对本文拥有版权,如有侵犯,请联系邮箱:fuyouu#yandex.com[#换成@]投诉。我们会在15个工作日内删除。 但烦请转载时请标明出处:“本文转载于『浮游电影网』,原文地址:https://www.fuyouu.com/22966.html

评论吧骚年!

发表你的见解   

昵称*

E-mail*(建议输入,以便收到博主回复的提示邮件)

验证码*

您可以使用eMule或eMule Mod(Windows)、aMule(Win、Linux、Mac)等软件下载eD2k链接。。
eMule收藏集(.emulecollection)文件是您选中的所有链接的列表文件。eMule可以直接下载它们。
按住SHIFT键选择可以选中多个选择框。
可用文件名和大小选择器来选择文件。
文件名选择器帮您根据文件名称或后缀来选择文件。不分大小写。
符号使用:
和:空格( )、+
不包含:-
或:|
转义:一对英文引号("");
匹配开头:^
匹配结尾:$
例如:
选中所有名称中包含有“eMule”或“0.49c”字眼,但不包含有“exe”字眼的:emule|0.49c -exe
选中所有名称的开头是“eMule”,结尾是“0.49c”的:^emule 0.49c$
选中所有名称中带有“eMule 0.49c”的(必须是“eMule 0.49c”,中间没有别的字符,不能是“eMule fake 0.49c”),需要转义:"emule 0.49c"
大小选择器帮您根据文件大小选择文件。