当前位置: 首页 >> 海外电影 >> 伊尼舍林的报丧女妖[简繁英字幕].The.Banshees.of.Inisherin.2022.1080p.BluRay.DDP5.1.x264-MOMOHD 13.55GB >> 正文

伊尼舍林的报丧女妖[简繁英字幕].The.Banshees.of.Inisherin.2022.1080p.BluRay.DDP5.1.x264-MOMOHD 13.55GB

2022年12月31日 08:36:12     电影发布:来源于网络     电影分类:海外电影     评论(0)    

◎标 题 伊尼舍林的报丧女妖

◎译 名 伊尼舍林的女妖(台) / 伊尼希尔的女妖 / 伊尼希尔岛的女妖 / 伊尼希尔岛的报丧女妖 / The Banshees of Inisheer

◎片 名 The Banshees of Inisherin

◎年 代 2022

◎产 地 爱尔兰 / 英国 / 美国

◎类 别 剧情 / 喜剧

◎语 言 英语

◎上映日期 2022-09-05(威尼斯电影节) / 2022-10-21(美国)

◎IMDb评分 7.9/10 (50637人评价)

◎IMDb链接 https://www.imdb.com/title/tt11813216/

◎豆瓣评分 7.9/10 (16031人评价)

◎豆瓣链接 https://movie.douban.com/subject/34969348/

◎导 演 马丁·麦克唐纳 Martin McDonagh

◎编 剧 马丁·麦克唐纳 Martin McDonagh

◎演 员 科林·法瑞尔 Colin Farrell

布莱丹·格里森 Brendan Gleeson

巴里·基奥恩 Barry Keoghan

凯瑞·康顿 Kerry Condon

帕特·绍特 Pat Shortt

盖瑞·莱登 Gary Lydon

Bríd Ní Neachtain Bríd Ní Neachtain

埃默·尼·毛尔多姆奈 Eimer Ni Mhaoldomhnaigh

◎简 介

柯林·法瑞尔、布兰登·格里森再度合作,饰演一对爱尔兰伊尼舍林海滨小岛的好兄弟,却面临绝交危机,这回断的不只友情,还有手指!马丁·麦克唐纳再展拿手黑色讽刺喜剧,当友谊走到尽头的心碎和伤害推到极端,所产生的愤怒与报复,竟然比爱情还失控,时空背景与爱尔兰内战遥相对照,更显其恶趣味。

  1. ##### MediaInfo ######

  2. General

  3. Unique ID : 85344142708687610590476958712865206126 (0x4034AF1AC2813A6EAA785AC88D93AF6E)

  4. Complete name : The.Banshees.of.Inisherin.2022.1080p.BluRay.DDP5.1.x264-MOMOHD.mkv

  5. Format : Matroska

  6. Format version : Version 4

  7. File size : 13.5 GiB

  8. Duration : 1 h 53 min

  9. Overall bit rate : 17.0 Mb/s

  10. Encoded date : UTC 2022-12-30 09:17:11

  11. Writing application : mkvmerge v68.0.0 ('The Curtain') 64-bit

  12. Writing library : libebml v1.4.2 + libmatroska v1.6.4


  13. Video

  14. ID : 1

  15. Format : AVC

  16. Format/Info : Advanced Video Codec

  17. Format profile : [email protected]

  18. Format settings : CABAC / 5 Ref Frames

  19. Format settings, CABAC : Yes

  20. Format settings, Reference frames : 5 frames

  21. Codec ID : V_MPEG4/ISO/AVC

  22. Duration : 1 h 53 min

  23. Bit rate : 16.0 Mb/s

  24. Width : 1 920 pixels

  25. Height : 802 pixels

  26. Display aspect ratio : 2.40:1

  27. Frame rate mode : Constant

  28. Frame rate : 23.976 (24000/1001) FPS

  29. Color space : YUV

  30. Chroma subsampling : 4:2:0

  31. Bit depth : 8 bits

  32. Scan type : Progressive

  33. Bits/(Pixel*Frame) : 0.433

  34. Stream size : 12.7 GiB (94%)

  35. Writing library : x264 core 164 r3075+55M 97d28bb t_mod_New [(8 & 10)[email protected] X86_64]

  36. Encoding settings : cabac=1 / ref=5 / deblock=1:-3:-3 / analyse=0x3:0x113 / me=umh / subme=11 / psy=1 / fade_compensate=0.00 / psy_rd=1.02:0.00 / mixed_ref=0 / me_range=32 / chroma_me=1 / trellis=2 / 8x8dct=1 / cqm=0 / deadzone=21,11 / fast_pskip=0 / chroma_qp_offset=-2 / threads=18 / lookahead_threads=4 / sliced_threads=0 / nr=0 / decimate=0 / interlaced=0 / bluray_compat=0 / constrained_intra=0 / fgo=0 / bframes=16 / b_pyramid=2 / b_adapt=2 / b_bias=0 / direct=3 / weightb=1 / open_gop=0 / weightp=1 / keyint=250 / keyint_min=23 / scenecut=40 / intra_refresh=0 / rc_lookahead=250 / rc=crf / mbtree=0 / crf=14.6000 / qcomp=0.60 / qpmin=0:0:0 / qpmax=69:69:69 / qpstep=4 / vbv_maxrate=62500 / vbv_bufsize=78125 / crf_max=0.0 / nal_hrd=none / filler=0 / ip_ratio=1.30 / pb_ratio=1.20 / aq=3:0.70 / aq-sensitivity=10.00 / aq-factor=1.00:1.00:1.00 / aq2=0 / aq3=0

  37. Default : Yes

  38. Forced : No

  39. Color range : Limited

  40. Color primaries : BT.709

  41. Matrix coefficients : BT.709


  42. Audio

  43. ID : 2

  44. Format : E-AC-3

  45. Format/Info : Enhanced AC-3

  46. Commercial name : Dolby Digital Plus

  47. Codec ID : A_EAC3

  48. Duration : 1 h 53 min

  49. Bit rate mode : Constant

  50. Bit rate : 1 024 kb/s

  51. Channel(s) : 6 channels

  52. Channel layout : L R C LFE Ls Rs

  53. Sampling rate : 48.0 kHz

  54. Frame rate : 31.250 FPS (1536 SPF)

  55. Compression mode : Lossy

  56. Stream size : 834 MiB (6%)

  57. Language : English

  58. Service kind : Complete Main

  59. Default : Yes

  60. Forced : No


  61. Text #1

  62. ID : 3

  63. Format : UTF-8

  64. Codec ID : S_TEXT/UTF8

  65. Codec ID/Info : UTF-8 Plain Text

  66. Duration : 1 h 45 min

  67. Bit rate : 96 b/s

  68. Count of elements : 1244

  69. Stream size : 74.8 KiB (0%)

  70. Title : Simplified Chinese&English

  71. Language : Chinese

  72. Default : No

  73. Forced : No


  74. Text #2

  75. ID : 4

  76. Format : UTF-8

  77. Codec ID : S_TEXT/UTF8

  78. Codec ID/Info : UTF-8 Plain Text

  79. Duration : 1 h 45 min

  80. Bit rate : 96 b/s

  81. Count of elements : 1244

  82. Stream size : 74.7 KiB (0%)

  83. Title : Traditional Chinese&English

  84. Language : Chinese

  85. Default : No

  86. Forced : No


  87. Text #3

  88. ID : 5

  89. Format : UTF-8

  90. Codec ID : S_TEXT/UTF8

  91. Codec ID/Info : UTF-8 Plain Text

  92. Duration : 1 h 45 min

  93. Bit rate : 43 b/s

  94. Count of elements : 1244

  95. Stream size : 33.9 KiB (0%)

  96. Title : Simplified Chinese

  97. Language : Chinese

  98. Default : No

  99. Forced : No


  100. Text #4

  101. ID : 6

  102. Format : UTF-8

  103. Codec ID : S_TEXT/UTF8

  104. Codec ID/Info : UTF-8 Plain Text

  105. Duration : 1 h 45 min

  106. Bit rate : 43 b/s

  107. Count of elements : 1244

  108. Stream size : 33.9 KiB (0%)

  109. Title : Traditional Chinese

  110. Language : Chinese

  111. Default : No

  112. Forced : No


  113. Text #5

  114. ID : 7

  115. Format : UTF-8

  116. Codec ID : S_TEXT/UTF8

  117. Codec ID/Info : UTF-8 Plain Text

  118. Duration : 1 h 48 min

  119. Bit rate : 54 b/s

  120. Count of elements : 1418

  121. Stream size : 43.7 KiB (0%)

  122. Title : English SDH

  123. Language : English

  124. Default : No

  125. Forced : No


  126. Menu

  127. 00:00:00.000 : en:Chapters01

  128. 00:05:01.510 : en:Chapters02

  129. 00:10:50.859 : en:Chapters03

  130. 00:17:25.878 : en:Chapters04

  131. 00:19:42.014 : en:Chapters05

  132. 00:25:51.633 : en:Chapters06

  133. 00:29:42.948 : en:Chapters07

  134. 00:33:21.750 : en:Chapters08

  135. 00:36:56.756 : en:Chapters09

  136. 00:39:54.475 : en:Chapters10

  137. 00:45:43.366 : en:Chapters11

  138. 00:53:22.658 : en:Chapters12

  139. 00:59:10.088 : en:Chapters13

  140. 01:03:36.104 : en:Chapters14

  141. 01:07:40.265 : en:Chapters15

  142. 01:12:10.910 : en:Chapters16

  143. 01:14:56.117 : en:Chapters17

  144. 01:19:59.253 : en:Chapters18

  145. 01:23:44.144 : en:Chapters19

  146. 01:34:26.703 : en:Chapters20

  147. 01:36:50.263 : en:Chapters21

  148. 01:43:49.432 : en:Chapters22

  149. 01:47:55.260 : en:Chapters23


复制代码



文件下载


除非特别注明,本文『伊尼舍林的报丧女妖[简繁英字幕].The.Banshees.of.Inisherin.2022.1080p.BluRay.DDP5.1.x264-MOMOHD 13.55GB』来源于互联网机器人自动抓取,非本站原创。 浮游电影网不对本文拥有版权,如有侵犯,请联系邮箱:fuyouu#yandex.com[#换成@]投诉。我们会在15个工作日内删除。 但烦请转载时请标明出处:“本文转载于『浮游电影网』,原文地址:https://www.fuyouu.com/22965.html

评论吧骚年!

发表你的见解   

昵称*

E-mail*(建议输入,以便收到博主回复的提示邮件)

验证码*

您可以使用eMule或eMule Mod(Windows)、aMule(Win、Linux、Mac)等软件下载eD2k链接。。
eMule收藏集(.emulecollection)文件是您选中的所有链接的列表文件。eMule可以直接下载它们。
按住SHIFT键选择可以选中多个选择框。
可用文件名和大小选择器来选择文件。
文件名选择器帮您根据文件名称或后缀来选择文件。不分大小写。
符号使用:
和:空格( )、+
不包含:-
或:|
转义:一对英文引号("");
匹配开头:^
匹配结尾:$
例如:
选中所有名称中包含有“eMule”或“0.49c”字眼,但不包含有“exe”字眼的:emule|0.49c -exe
选中所有名称的开头是“eMule”,结尾是“0.49c”的:^emule 0.49c$
选中所有名称中带有“eMule 0.49c”的(必须是“eMule 0.49c”,中间没有别的字符,不能是“eMule fake 0.49c”),需要转义:"emule 0.49c"
大小选择器帮您根据文件大小选择文件。