当前位置: 首页 >> 港台电影 >> 还是觉得你最好[粤语音轨/简英字幕].Table.For.Six.(Extended.version).2022.1080p.NowE.WEB-DL.AAC2.0.H264-DreamHD 4.10G >> 正文

还是觉得你最好[粤语音轨/简英字幕].Table.For.Six.(Extended.version).2022.1080p.NowE.WEB-DL.AAC2.0.H264-DreamHD 4.10G

2022年12月31日 08:35:36     电影发布:来源于网络     电影分类:港台电影     评论(0)    

◎标 题 还是觉得你最好

◎译 名 饭戏攻心 / Table for Six

◎片 名 飯戲攻心

◎年 代 2022

◎产 地 中国香港

◎类 别 喜剧 / 爱情

◎语 言 粤语 / 汉语普通话

◎上映日期 2022-09-09(中国大陆) / 2022-09-08(中国香港) / 2022-04-24(远东国际电影节) / 2022-08-19(北京国际电影节)

◎IMDb评分 7.4/10 (479人评价)

◎IMDb链接 https://www.imdb.com/title/tt21187542/

◎豆瓣评分 7.6/10 (71867人评价)

◎豆瓣链接 https://movie.douban.com/subject/35503125/

◎片 长 116分钟(中国大陆)

◎导 演 陈咏燊 Sunny Chan

◎编 剧 陈咏燊 Sunny Chan

◎演 员 黄子华 Dayo Wong

邓丽欣 Stephy Tang

张继聪 Louis Cheung

王菀之 Ivana Wong

林明祯 Min-Chen Lin

陈湛文 Charm Man Chan

廖子妤 Fish Liew

古天乐 Louis Koo

王丹妮 Louise Wong

余香凝 Jennifer Yu

黄德斌 Tak-bun Wong

胡子彤 Tony Tsz-Tung Wu

姜皓文 Philip Keung Ho-Man

陈毅燊 Anson Chan

吴肇轩 Kenneth Woo

林家熙 Ka-Hei Lam

凌文龙 Man-Lung Ling

江志强 William Kong

薛文熹 Simon Hugh

李捷 Jie Li

李绮雯 Yee-Man Lee

何韵明 Ivy Ho

邓维弼 Wai-but Tang

黄艾伦 Alan Wong

翁玮盈 Janet Yung

张宇翰 Meteor Cheung

张嘉辉 Ka-fai Cheung

郑伟麟 Alan Wai-Lun Cheng

梁子贤 Tsz Yin Leung

张蚊 Irving Cheung

罗焕芳

李耀强 George Lee Yiu-Keung

◎简 介

一家三兄弟,大哥(黄子华 饰)恋恋不忘的前女友Monica(邓丽欣 饰)竟成为二哥(张继聪 饰)的现女友。自尊心驱使下,大哥答应新结识的喵喵(林明祯 饰)的追求。三弟(陈湛文 饰)和女友Josephine(王菀之 饰)的姐弟恋长跑多年,也面临爱情危机。同一屋檐,3对情侣,4段恋情,每晚人齐开餐的相聚渐渐演变成饭桌修罗场,啼笑不停。面对旧爱与新欢,大哥将做何选择?大家努力维持的这个家,又该何去何从?

  1. ##### MediaInfo ######

  2. General

  3. Unique ID : 40969413419957822541155792986057466025 (0x1ED26C08E8D2F1B1144BCE2CA187E0A9)

  4. Complete name : Table.For.Six.(Extended.version).2022.1080p.NowE.WEB-DL.AAC2.0.H264-DreamHD.mkv

  5. Format : Matroska

  6. Format version : Version 4

  7. File size : 4.09 GiB

  8. Duration : 1 h 57 min

  9. Overall bit rate mode : Variable

  10. Overall bit rate : 4 970 kb/s

  11. Movie name : Table.For.Six.(Extended.version).1080p.NowE.WEB-DL.AAC2.0.H264-CHDWEB

  12. Encoded date : UTC 2022-12-30 01:58:23

  13. Writing application : mkvmerge v44.0.0 ('Domino') 64-bit

  14. Writing library : libebml v1.3.10 + libmatroska v1.5.2


  15. Video

  16. ID : 1

  17. Format : AVC

  18. Format/Info : Advanced Video Codec

  19. Format profile : [email protected]

  20. Format settings : CABAC / 4 Ref Frames

  21. Format settings, CABAC : Yes

  22. Format settings, Reference frames : 4 frames

  23. Codec ID : V_MPEG4/ISO/AVC

  24. Duration : 1 h 57 min

  25. Bit rate mode : Variable

  26. Bit rate : 4 808 kb/s

  27. Width : 1 920 pixels

  28. Height : 1 080 pixels

  29. Display aspect ratio : 16:9

  30. Frame rate mode : Constant

  31. Frame rate : 25.000 FPS

  32. Standard : Component

  33. Color space : YUV

  34. Chroma subsampling : 4:2:0

  35. Bit depth : 8 bits

  36. Scan type : Progressive

  37. Bits/(Pixel*Frame) : 0.093

  38. Stream size : 3.94 GiB (96%)

  39. Default : Yes

  40. Forced : No

  41. Color range : Limited


  42. Audio #1

  43. ID : 2

  44. Format : AAC LC

  45. Format/Info : Advanced Audio Codec Low Complexity

  46. Codec ID : A_AAC-2

  47. Duration : 1 h 57 min

  48. Bit rate : 93.4 kb/s

  49. Channel(s) : 2 channels

  50. Channel layout : L R

  51. Sampling rate : 48.0 kHz

  52. Frame rate : 46.875 FPS (1024 SPF)

  53. Compression mode : Lossy

  54. Stream size : 78.8 MiB (2%)

  55. Title : Cantonese

  56. Language : Chinese

  57. Default : Yes

  58. Forced : No


  59. Audio #2

  60. ID : 3

  61. Format : AAC LC

  62. Format/Info : Advanced Audio Codec Low Complexity

  63. Codec ID : A_AAC-2

  64. Duration : 1 h 57 min

  65. Bit rate : 93.4 kb/s

  66. Channel(s) : 2 channels

  67. Channel layout : L R

  68. Sampling rate : 48.0 kHz

  69. Frame rate : 46.875 FPS (1024 SPF)

  70. Compression mode : Lossy

  71. Stream size : 78.8 MiB (2%)

  72. Title : (Yue Chinese)

  73. Language : Chinese

  74. Default : No

  75. Forced : No


  76. Text #1

  77. ID : 4

  78. Format : UTF-8

  79. Codec ID : S_TEXT/UTF8

  80. Codec ID/Info : UTF-8 Plain Text

  81. Duration : 1 h 56 min

  82. Bit rate : 61 b/s

  83. Count of elements : 2400

  84. Stream size : 52.7 KiB (0%)

  85. Title : English

  86. Language : English

  87. Default : No

  88. Forced : No


  89. Text #2

  90. ID : 5

  91. Format : UTF-8

  92. Codec ID : S_TEXT/UTF8

  93. Codec ID/Info : UTF-8 Plain Text

  94. Duration : 1 h 56 min

  95. Bit rate : 55 b/s

  96. Count of elements : 2386

  97. Stream size : 47.0 KiB (0%)

  98. Title : Simplified Chinese

  99. Language : Chinese

  100. Default : No

  101. Forced : No


  102. Text #3

  103. ID : 6

  104. Format : UTF-8

  105. Codec ID : S_TEXT/UTF8

  106. Codec ID/Info : UTF-8 Plain Text

  107. Duration : 1 h 56 min

  108. Bit rate : 55 b/s

  109. Count of elements : 2386

  110. Stream size : 47.0 KiB (0%)

  111. Title : (Yue Chinese)

  112. Language : Chinese

  113. Default : No

  114. Forced : No


复制代码




文件下载


除非特别注明,本文『还是觉得你最好[粤语音轨/简英字幕].Table.For.Six.(Extended.version).2022.1080p.NowE.WEB-DL.AAC2.0.H264-DreamHD 4.10G』来源于互联网机器人自动抓取,非本站原创。 浮游电影网不对本文拥有版权,如有侵犯,请联系邮箱:fuyouu#yandex.com[#换成@]投诉。我们会在15个工作日内删除。 但烦请转载时请标明出处:“本文转载于『浮游电影网』,原文地址:https://www.fuyouu.com/22964.html

评论吧骚年!

发表你的见解   

昵称*

E-mail*(建议输入,以便收到博主回复的提示邮件)

验证码*

您可以使用eMule或eMule Mod(Windows)、aMule(Win、Linux、Mac)等软件下载eD2k链接。。
eMule收藏集(.emulecollection)文件是您选中的所有链接的列表文件。eMule可以直接下载它们。
按住SHIFT键选择可以选中多个选择框。
可用文件名和大小选择器来选择文件。
文件名选择器帮您根据文件名称或后缀来选择文件。不分大小写。
符号使用:
和:空格( )、+
不包含:-
或:|
转义:一对英文引号("");
匹配开头:^
匹配结尾:$
例如:
选中所有名称中包含有“eMule”或“0.49c”字眼,但不包含有“exe”字眼的:emule|0.49c -exe
选中所有名称的开头是“eMule”,结尾是“0.49c”的:^emule 0.49c$
选中所有名称中带有“eMule 0.49c”的(必须是“eMule 0.49c”,中间没有别的字符,不能是“eMule fake 0.49c”),需要转义:"emule 0.49c"
大小选择器帮您根据文件大小选择文件。