当前位置: 首页 >> 国产电影 >> 芙蓉镇[国语音轨/简英字幕].Hibiscus.Town.1987.UHD.BluRay.2160p.DTS-HD.MA.1.0.x265.10bit.HDR-ALT 27.86GB >> 正文

芙蓉镇[国语音轨/简英字幕].Hibiscus.Town.1987.UHD.BluRay.2160p.DTS-HD.MA.1.0.x265.10bit.HDR-ALT 27.86GB

2022年12月31日 08:35:02     电影发布:来源于网络     电影分类:国产电影     评论(0)    

◎标 题 芙蓉镇

◎译 名 Hibiscus Town

◎年 代 1987

◎产 地 中国大陆

◎类 别 剧情 / 爱情

◎语 言 汉语普通话

◎上映日期 1987-03-05(中国大陆上海首映)

◎IMDb评分 8.2/10 (1059人评价)

◎IMDb链接 https://www.imdb.com/title/tt0087301/

◎豆瓣评分 9.2/10 (120775人评价)

◎豆瓣链接 https://movie.douban.com/subject/1297880/

◎片 长 164 分钟

◎导 演 谢晋 Jin Xie

◎编 剧 阿城 A Cheng

谢晋 Jin Xie

陈敦德 Dunde Chen

古华 Hua Gu

◎演 员 刘晓庆 Xiaoqing Liu

姜文 Wen Jiang

郑在石 Zaishi Zheng

张光北 Guangbei Zhang

徐松子 Songzi Xu

祝士彬 Shibin Zhu

刘利年 Harrison Liu

姜友石 Youshi Jiang

麦文燕 Wenyan Mai

徐宁 Ning Xu

葛炎 Yan Ge

梅云熹 Yunxi Mei

卢俊福 Junfu Lu

周鼎文 Dingwen Zhou

徐国梁 Guoliang Xu

张元鼎 Yuanding Zhang

陈忠泽 Zhongze Chen

郑海江 Haijiang Zheng

林福增 Fuzeng Lin

金绮芬 Qifen Jin

张存忠 Cunzhong Zhang

沈克强 Keqiang Shen

洪美娟 Meijuan Hong

汤丽绚 Lixuan Tang

胡立德 Lide Hu

朱伟刚 Weigang Zhu

谢协鹏 Xiepeng Xie

◎简 介

本片分上下两集,讲述了位于湘、粤、桂三省交界处的芙蓉镇上,人称“芙蓉姐”的漂亮女人胡玉音(刘晓庆)在“四清运动”及“文化大革命”中的遭遇。

1963年,凭着热情周到的服务,胡玉音与丈夫桂桂(刘利年)经营的米豆腐摊子前渐渐成为早市上最热闹的一道风景,加上夫妻俩省吃俭用,手中积攒了一 笔数目可观的财富。镇党支书也是胡玉音干哥的黎满庚(张光北)、粮站主任谷燕山(郑在石)及乡邻们都为他们高兴。当他们盖好新房准备日子更上一层楼时,迎上“四清运动”,一直嫉妒胡玉音的原国营饮食店经理、今县商业局科长李国香(徐松子)与二流子王秋赦(祝士彬)联手,趁机将她定性为“反革命五类分子”中的“富农婆”,将之派去与原县文化馆馆长、今被人称作“秦癫子”的“右派”秦书田(姜文)一起清扫大街,桂桂身亡。运动中黎满庚昧着良心将胡玉音背叛,谷燕山则一直以老革命军人的标准诚实做人。

196...

  1. ##### MediaInfo ######

  2. General

  3. Unique ID : 244623190223638885881796316012575912207 (0xB808B67472296CB29102BC3646CEF10F)

  4. Complete name : Hibiscus.Town.1987.UHD.BluRay.2160p.DTS-HD.MA.1.0.x265.10bit.HDR-ALT.mkv

  5. Format : Matroska

  6. Format version : Version 4

  7. File size : 27.9 GiB

  8. Duration : 2 h 44 min

  9. Overall bit rate mode : Variable

  10. Overall bit rate : 24.3 Mb/s

  11. Encoded date : UTC 2022-12-29 12:00:54

  12. Writing application : mkvmerge v49.0.0 ('Sick Of Losing Soulmates') 64-bit

  13. Writing library : libebml v1.4.0 + libmatroska v1.6.1


  14. Video

  15. ID : 1

  16. Format : HEVC

  17. Format/Info : High Efficiency Video Coding

  18. Format profile : Main [email protected]@High

  19. HDR format : SMPTE ST 2086, HDR10 compatible

  20. Codec ID : V_MPEGH/ISO/HEVC

  21. Duration : 2 h 44 min

  22. Bit rate : 23.6 Mb/s

  23. Width : 3 840 pixels

  24. Height : 1 632 pixels

  25. Display aspect ratio : 2.35:1

  26. Frame rate mode : Constant

  27. Frame rate : 24.000 FPS

  28. Color space : YUV

  29. Chroma subsampling : 4:2:0 (Type 2)

  30. Bit depth : 10 bits

  31. Bits/(Pixel*Frame) : 0.157

  32. Stream size : 27.0 GiB (97%)

  33. Title : HEVC, [email protected]@High, 24 fps @ 23009 kbps

  34. Writing library : x265 3.5+40-6064f96a6:[Windows][GCC 12.2.0][64 bit] 10bit

  35. Encoding settings : cpuid=1111039 / frame-threads=4 / numa-pools=20 / wpp / no-pmode / no-pme / no-psnr / no-ssim / log-level=2 / input-csp=1 / input-res=3840x1632 / interlace=0 / total-frames=236248 / level-idc=51 / high-tier=1 / uhd-bd=0 / ref=4 / no-allow-non-conformance / repeat-headers / annexb / no-aud / no-eob / no-eos / hrd / info / hash=0 / no-temporal-layers / no-open-gop / min-keyint=24 / keyint=240 / gop-lookahead=0 / bframes=8 / b-adapt=2 / b-pyramid / bframe-bias=0 / rc-lookahead=25 / lookahead-slices=0 / scenecut=40 / no-hist-scenecut / radl=0 / no-splice / no-intra-refresh / ctu=64 / min-cu-size=8 / no-rect / no-amp / max-tu-size=32 / tu-inter-depth=3 / tu-intra-depth=3 / limit-tu=4 / rdoq-level=2 / dynamic-rd=0.00 / no-ssim-rd / signhide / no-tskip / nr-intra=0 / nr-inter=0 / no-constrained-intra / no-strong-intra-smoothing / max-merge=4 / limit-refs=1 / limit-modes / me=3 / subme=4 / merange=57 / temporal-mvp / no-frame-dup / no-hme / weightp / weightb / no-analyze-src-pics / deblock=-3:-3 / no-sao / no-sao-non-deblock / rd=6 / selective-sao=0 / no-early-skip / rskip / no-fast-intra / no-tskip-fast / no-cu-lossless / b-intra / no-splitrd-skip / rdpenalty=0 / psy-rd=2.00 / psy-rdoq=1.00 / no-rd-refine / no-lossless / cbqpoffs=-2 / crqpoffs=-2 / rc=crf / crf=23.5 / qcomp=0.65 / qpstep=4 / stats-write=0 / stats-read=0 / vbv-maxrate=160000 / vbv-bufsize=160000 / vbv-init=0.9 / min-vbv-fullness=50.0 / max-vbv-fullness=80.0 / crf-max=0.0 / crf-min=0.0 / ipratio=1.30 / pbratio=1.20 / aq-mode=3 / aq-strength=0.85 / cutree / zone-count=0 / no-strict-cbr / qg-size=32 / no-rc-grain / qpmax=69 / qpmin=0 / no-const-vbv / sar=1 / overscan=0 / videoformat=5 / range=0 / colorprim=9 / transfer=16 / colormatrix=9 / chromaloc=1 / chromaloc-top=2 / chromaloc-bottom=2 / display-window=0 / master-display=G(13250,34500)B(7500,3000)R(34000,16000)WP(15635,16450)L(10000000,1) / cll=428,210 / min-luma=0 / max-luma=1023 / log2-max-poc-lsb=8 / vui-timing-info / vui-hrd-info / slices=1 / no-opt-qp-pps / no-opt-ref-list-length-pps / no-multi-pass-opt-rps / scenecut-bias=0.05 / hist-threshold=0.03 / no-opt-cu-delta-qp / no-aq-motion / hdr10 / hdr10-opt / no-dhdr10-opt / no-idr-recovery-sei / analysis-reuse-level=0 / analysis-save-reuse-level=0 / analysis-load-reuse-level=0 / scale-factor=0 / refine-intra=0 / refine-inter=0 / refine-mv=1 / refine-ctu-distortion=0 / no-limit-sao / ctu-info=0 / no-lowpass-dct / refine-analysis-type=0 / copy-pic=1 / max-ausize-factor=1.0 / no-dynamic-refine / no-single-sei / no-hevc-aq / no-svt / no-field / qp-adaptation-range=1.00 / scenecut-aware-qp=0conformance-window-offsets / right=0 / bottom=0 / decoder-max-rate=0 / no-vbv-live-multi-pass

  36. Language : English

  37. Default : Yes

  38. Forced : No

  39. Color range : Limited

  40. Color primaries : BT.2020

  41. Transfer characteristics : PQ

  42. Matrix coefficients : BT.2020 non-constant

  43. Mastering display color primaries : Display P3

  44. Mastering display luminance : min: 0.0001 cd/m2, max: 1000 cd/m2

  45. Maximum Content Light Level : 428 cd/m2

  46. Maximum Frame-Average Light Level : 210 cd/m2


  47. Audio

  48. ID : 2

  49. Format : DTS XLL

  50. Format/Info : Digital Theater Systems

  51. Commercial name : DTS-HD Master Audio

  52. Codec ID : A_DTS

  53. Duration : 2 h 44 min

  54. Bit rate mode : Variable

  55. Bit rate : 701 kb/s

  56. Channel(s) : 1 channel

  57. Channel layout : C

  58. Sampling rate : 48.0 kHz

  59. Frame rate : 93.750 FPS (512 SPF)

  60. Bit depth : 24 bits

  61. Compression mode : Lossless

  62. Stream size : 823 MiB (3%)

  63. Title : Mandarin DTS-HD Master Audio 1.0 @ 702 kbps

  64. Language : Chinese

  65. Default : Yes

  66. Forced : No


  67. Text #1

  68. ID : 3

  69. Format : PGS

  70. Codec ID : S_HDMV/PGS

  71. Codec ID/Info : Picture based subtitle format used on BDs/HD-DVDs

  72. Duration : 2 h 40 min

  73. Bit rate : 16.5 kb/s

  74. Count of elements : 2358

  75. Stream size : 18.9 MiB (0%)

  76. Title : Chs/SUP 简体

  77. Language : Chinese

  78. Default : Yes

  79. Forced : No


  80. Text #2

  81. ID : 4

  82. Format : PGS

  83. Codec ID : S_HDMV/PGS

  84. Codec ID/Info : Picture based subtitle format used on BDs/HD-DVDs

  85. Duration : 2 h 43 min

  86. Bit rate : 22.7 kb/s

  87. Count of elements : 2375

  88. Stream size : 26.6 MiB (0%)

  89. Title : Eng/SUP

  90. Language : English

  91. Default : No

  92. Forced : No


  93. Menu

  94. 00:00:00.000 : en:第 01 章

  95. 00:11:31.208 : en:第 02 章

  96. 00:31:18.667 : en:第 03 章

  97. 00:48:45.542 : en:第 04 章

  98. 00:59:33.500 : en:第 05 章

  99. 01:14:00.292 : en:第 06 章

  100. 01:29:28.208 : en:第 07 章

  101. 01:44:15.125 : en:第 08 章

  102. 01:58:41.125 : en:第 09 章

  103. 02:15:19.292 : en:第 10 章

  104. 02:25:58.708 : en:第 11 章

  105. 02:35:08.458 : en:第 12 章


复制代码




文件下载


除非特别注明,本文『芙蓉镇[国语音轨/简英字幕].Hibiscus.Town.1987.UHD.BluRay.2160p.DTS-HD.MA.1.0.x265.10bit.HDR-ALT 27.86GB』来源于互联网机器人自动抓取,非本站原创。 浮游电影网不对本文拥有版权,如有侵犯,请联系邮箱:fuyouu#yandex.com[#换成@]投诉。我们会在15个工作日内删除。 但烦请转载时请标明出处:“本文转载于『浮游电影网』,原文地址:https://www.fuyouu.com/22963.html

评论吧骚年!

发表你的见解   

昵称*

E-mail*(建议输入,以便收到博主回复的提示邮件)

验证码*

您可以使用eMule或eMule Mod(Windows)、aMule(Win、Linux、Mac)等软件下载eD2k链接。。
eMule收藏集(.emulecollection)文件是您选中的所有链接的列表文件。eMule可以直接下载它们。
按住SHIFT键选择可以选中多个选择框。
可用文件名和大小选择器来选择文件。
文件名选择器帮您根据文件名称或后缀来选择文件。不分大小写。
符号使用:
和:空格( )、+
不包含:-
或:|
转义:一对英文引号("");
匹配开头:^
匹配结尾:$
例如:
选中所有名称中包含有“eMule”或“0.49c”字眼,但不包含有“exe”字眼的:emule|0.49c -exe
选中所有名称的开头是“eMule”,结尾是“0.49c”的:^emule 0.49c$
选中所有名称中带有“eMule 0.49c”的(必须是“eMule 0.49c”,中间没有别的字符,不能是“eMule fake 0.49c”),需要转义:"emule 0.49c"
大小选择器帮您根据文件大小选择文件。