当前位置: 首页 >> 海外电影 >> 娃娃屋[简繁英字幕].Doll.House.2022.1080p.NF.WEB-DL.DDP5.1.x264-MOMOWEB 3.55GB >> 正文

娃娃屋[简繁英字幕].Doll.House.2022.1080p.NF.WEB-DL.DDP5.1.x264-MOMOWEB 3.55GB

2022年12月31日 08:33:48     电影发布:来源于网络     电影分类:海外电影     评论(0)    

◎标 题 娃娃屋

◎片 名 Doll House

◎年 代 2022

◎产 地 菲律宾

◎类 别 剧情

◎语 言 菲律宾语

◎上映日期 2022-10-07(菲律宾)

◎IMDb评分 6.4/10 (384人评价)

◎IMDb链接 https://www.imdb.com/title/tt22038236/

◎豆瓣链接 https://movie.douban.com/subject/36111491/

◎片 长 107分钟

◎演 员 玛丽·乔伊·阿波斯托 Mary Joy Apostol

拜伦·盖斯勒 Baron Geisler

◎简 介

一名麻烦缠身的摇滚乐队主唱试图与失散多年的女儿重建他从未体验过的父女情

  1. ##### MediaInfo ######

  2. General

  3. Unique ID : 78429977583589093958532533589122941788 (0x3B011071CF1174BF108550B89FFB035C)

  4. Complete name : Doll.House.2022.1080p.NF.WEB-DL.DDP5.1.x264-MOMOWEB.mkv

  5. Format : Matroska

  6. Format version : Version 4

  7. File size : 3.54 GiB

  8. Duration : 1 h 46 min

  9. Overall bit rate mode : Variable

  10. Overall bit rate : 4 778 kb/s

  11. Movie name : Doll.House.2022.1080p.NF.WEB-DL.DDP5.1.x264-PTerWEB

  12. Encoded date : UTC 2022-12-29 15:06:19

  13. Writing application : mkvmerge v72.0.0 ('Minuano (Six-eight)') 64-bit

  14. Writing library : libebml v1.4.4 + libmatroska v1.7.1


  15. Video

  16. ID : 1

  17. Format : AVC

  18. Format/Info : Advanced Video Codec

  19. Format profile : [email protected]

  20. Format settings : CABAC / 4 Ref Frames

  21. Format settings, CABAC : Yes

  22. Format settings, Reference frames : 4 frames

  23. Codec ID : V_MPEG4/ISO/AVC

  24. Duration : 1 h 46 min

  25. Bit rate mode : Variable

  26. Bit rate : 4 132 kb/s

  27. Maximum bit rate : 20.0 Mb/s

  28. Width : 1 920 pixels

  29. Height : 1 080 pixels

  30. Display aspect ratio : 16:9

  31. Frame rate mode : Constant

  32. Frame rate : 23.976 (24000/1001) FPS

  33. Color space : YUV

  34. Chroma subsampling : 4:2:0

  35. Bit depth : 8 bits

  36. Scan type : Progressive

  37. Bits/(Pixel*Frame) : 0.083

  38. Stream size : 3.07 GiB (86%)

  39. Writing library : x264 core 148 r2727 7d026e8

  40. Encoding settings : cabac=1 / ref=4 / deblock=1:0:0 / analyse=0x3:0x111 / me=umh / subme=10 / psy=1 / psy_rd=1.00:0.00 / mixed_ref=1 / me_range=120 / chroma_me=1 / trellis=2 / 8x8dct=1 / cqm=0 / deadzone=21,11 / fast_pskip=1 / chroma_qp_offset=-2 / threads=8 / lookahead_threads=2 / sliced_threads=0 / nr=0 / decimate=1 / interlaced=0 / bluray_compat=0 / stitchable=1 / constrained_intra=0 / bframes=16 / b_pyramid=2 / b_adapt=2 / b_bias=0 / direct=3 / weightb=1 / open_gop=0 / weightp=2 / keyint=240 / keyint_min=121 / scenecut=0 / intra_refresh=0 / rc_lookahead=240 / rc=crf / mbtree=1 / crf=21.0 / qcomp=0.50 / qpmin=6 / qpmax=51 / qpstep=4 / vbv_maxrate=20000 / vbv_bufsize=25000 / crf_max=0.0 / nal_hrd=vbr / filler=0 / ip_ratio=1.40 / aq=1:0.80

  41. Default : Yes

  42. Forced : No


  43. Audio

  44. ID : 2

  45. Format : E-AC-3

  46. Format/Info : Enhanced AC-3

  47. Commercial name : Dolby Digital Plus

  48. Codec ID : A_EAC3

  49. Duration : 1 h 46 min

  50. Bit rate mode : Constant

  51. Bit rate : 640 kb/s

  52. Channel(s) : 6 channels

  53. Channel layout : L R C LFE Ls Rs

  54. Sampling rate : 48.0 kHz

  55. Frame rate : 31.250 FPS (1536 SPF)

  56. Compression mode : Lossy

  57. Delay relative to video : -83 ms

  58. Stream size : 486 MiB (13%)

  59. Language : Finnish

  60. Service kind : Complete Main

  61. Default : Yes

  62. Forced : No


  63. Text #1

  64. ID : 3

  65. Format : UTF-8

  66. Codec ID : S_TEXT/UTF8

  67. Codec ID/Info : UTF-8 Plain Text

  68. Duration : 1 h 45 min

  69. Bit rate : 62 b/s

  70. Count of elements : 1211

  71. Stream size : 48.5 KiB (0%)

  72. Language : Arabic

  73. Default : No

  74. Forced : No


  75. Text #2

  76. ID : 4

  77. Format : UTF-8

  78. Codec ID : S_TEXT/UTF8

  79. Codec ID/Info : UTF-8 Plain Text

  80. Duration : 1 h 45 min

  81. Bit rate : 34 b/s

  82. Count of elements : 1199

  83. Stream size : 26.5 KiB (0%)

  84. Language : Czech

  85. Default : No

  86. Forced : No


  87. Text #3

  88. ID : 5

  89. Format : UTF-8

  90. Codec ID : S_TEXT/UTF8

  91. Codec ID/Info : UTF-8 Plain Text

  92. Duration : 1 h 45 min

  93. Bit rate : 34 b/s

  94. Count of elements : 1079

  95. Stream size : 27.0 KiB (0%)

  96. Language : Danish

  97. Default : No

  98. Forced : No


  99. Text #4

  100. ID : 6

  101. Format : UTF-8

  102. Codec ID : S_TEXT/UTF8

  103. Codec ID/Info : UTF-8 Plain Text

  104. Duration : 1 h 45 min

  105. Bit rate : 38 b/s

  106. Count of elements : 1138

  107. Stream size : 29.5 KiB (0%)

  108. Language : German

  109. Default : No

  110. Forced : No


  111. Text #5

  112. ID : 7

  113. Format : UTF-8

  114. Codec ID : S_TEXT/UTF8

  115. Codec ID/Info : UTF-8 Plain Text

  116. Duration : 1 h 45 min

  117. Bit rate : 61 b/s

  118. Count of elements : 1134

  119. Stream size : 47.3 KiB (0%)

  120. Language : Greek

  121. Default : No

  122. Forced : No


  123. Text #6

  124. ID : 8

  125. Format : UTF-8

  126. Codec ID : S_TEXT/UTF8

  127. Codec ID/Info : UTF-8 Plain Text

  128. Duration : 1 h 42 min

  129. Bit rate : 56 b/s

  130. Count of elements : 1672

  131. Stream size : 42.6 KiB (0%)

  132. Title : SDH

  133. Language : English

  134. Default : No

  135. Forced : No


  136. Text #7

  137. ID : 9

  138. Format : UTF-8

  139. Codec ID : S_TEXT/UTF8

  140. Codec ID/Info : UTF-8 Plain Text

  141. Duration : 1 h 38 min

  142. Bit rate : 37 b/s

  143. Count of elements : 1199

  144. Stream size : 27.1 KiB (0%)

  145. Language : English

  146. Default : No

  147. Forced : No


  148. Text #8

  149. ID : 10

  150. Format : UTF-8

  151. Codec ID : S_TEXT/UTF8

  152. Codec ID/Info : UTF-8 Plain Text

  153. Duration : 1 h 45 min

  154. Bit rate : 32 b/s

  155. Count of elements : 1206

  156. Stream size : 25.4 KiB (0%)

  157. Title : Espa?a

  158. Language : Spanish

  159. Default : No

  160. Forced : No


  161. Text #9

  162. ID : 11

  163. Format : UTF-8

  164. Codec ID : S_TEXT/UTF8

  165. Codec ID/Info : UTF-8 Plain Text

  166. Duration : 1 h 45 min

  167. Bit rate : 35 b/s

  168. Count of elements : 1215

  169. Stream size : 27.4 KiB (0%)

  170. Title : Latinoamérica

  171. Language : Spanish

  172. Default : No

  173. Forced : No


  174. Text #10

  175. ID : 12

  176. Format : UTF-8

  177. Codec ID : S_TEXT/UTF8

  178. Codec ID/Info : UTF-8 Plain Text

  179. Duration : 1 h 45 min

  180. Bit rate : 33 b/s

  181. Count of elements : 1144

  182. Stream size : 25.7 KiB (0%)

  183. Language : Finnish

  184. Default : No

  185. Forced : No


  186. Text #11

  187. ID : 13

  188. Format : UTF-8

  189. Codec ID : S_TEXT/UTF8

  190. Codec ID/Info : UTF-8 Plain Text

  191. Duration : 1 h 45 min

  192. Bit rate : 47 b/s

  193. Count of elements : 1483

  194. Stream size : 36.5 KiB (0%)

  195. Language : fil

  196. Default : No

  197. Forced : No


  198. Text #12

  199. ID : 14

  200. Format : UTF-8

  201. Codec ID : S_TEXT/UTF8

  202. Codec ID/Info : UTF-8 Plain Text

  203. Duration : 57 min 1 s

  204. Bit rate : 0 b/s

  205. Count of elements : 9

  206. Stream size : 239 Bytes (0%)

  207. Language : fil

  208. Default : No

  209. Forced : No


  210. Text #13

  211. ID : 15

  212. Format : UTF-8

  213. Codec ID : S_TEXT/UTF8

  214. Codec ID/Info : UTF-8 Plain Text

  215. Duration : 1 h 45 min

  216. Bit rate : 33 b/s

  217. Count of elements : 1045

  218. Stream size : 26.1 KiB (0%)

  219. Language : French

  220. Default : No

  221. Forced : No


  222. Text #14

  223. ID : 16

  224. Format : UTF-8

  225. Codec ID : S_TEXT/UTF8

  226. Codec ID/Info : UTF-8 Plain Text

  227. Duration : 1 h 45 min

  228. Bit rate : 58 b/s

  229. Count of elements : 1241

  230. Stream size : 45.0 KiB (0%)

  231. Language : Hebrew

  232. Default : No

  233. Forced : No


  234. Text #15

  235. ID : 17

  236. Format : UTF-8

  237. Codec ID : S_TEXT/UTF8

  238. Codec ID/Info : UTF-8 Plain Text

  239. Duration : 1 h 45 min

  240. Bit rate : 29 b/s

  241. Count of elements : 1153

  242. Stream size : 23.0 KiB (0%)

  243. Language : Croatian

  244. Default : No

  245. Forced : No


  246. Text #16

  247. ID : 18

  248. Format : UTF-8

  249. Codec ID : S_TEXT/UTF8

  250. Codec ID/Info : UTF-8 Plain Text

  251. Duration : 1 h 45 min

  252. Bit rate : 34 b/s

  253. Count of elements : 1190

  254. Stream size : 26.3 KiB (0%)

  255. Language : Hungarian

  256. Default : No

  257. Forced : No


  258. Text #17

  259. ID : 19

  260. Format : UTF-8

  261. Codec ID : S_TEXT/UTF8

  262. Codec ID/Info : UTF-8 Plain Text

  263. Duration : 1 h 45 min

  264. Bit rate : 34 b/s

  265. Count of elements : 1181

  266. Stream size : 26.8 KiB (0%)

  267. Language : Indonesian

  268. Default : No

  269. Forced : No


  270. Text #18

  271. ID : 20

  272. Format : UTF-8

  273. Codec ID : S_TEXT/UTF8

  274. Codec ID/Info : UTF-8 Plain Text

  275. Duration : 1 h 45 min

  276. Bit rate : 33 b/s

  277. Count of elements : 1197

  278. Stream size : 25.6 KiB (0%)

  279. Language : Italian

  280. Default : No

  281. Forced : No


  282. Text #19

  283. ID : 21

  284. Format : UTF-8

  285. Codec ID : S_TEXT/UTF8

  286. Codec ID/Info : UTF-8 Plain Text

  287. Duration : 1 h 45 min

  288. Bit rate : 36 b/s

  289. Count of elements : 1220

  290. Stream size : 28.4 KiB (0%)

  291. Language : Japanese

  292. Default : No

  293. Forced : No


  294. Text #20

  295. ID : 22

  296. Format : UTF-8

  297. Codec ID : S_TEXT/UTF8

  298. Codec ID/Info : UTF-8 Plain Text

  299. Duration : 1 h 45 min

  300. Bit rate : 45 b/s

  301. Count of elements : 1225

  302. Stream size : 35.3 KiB (0%)

  303. Language : Korean

  304. Default : No

  305. Forced : No


  306. Text #21

  307. ID : 23

  308. Format : UTF-8

  309. Codec ID : S_TEXT/UTF8

  310. Codec ID/Info : UTF-8 Plain Text

  311. Duration : 1 h 45 min

  312. Bit rate : 34 b/s

  313. Count of elements : 1180

  314. Stream size : 26.8 KiB (0%)

  315. Language : Malay

  316. Default : No

  317. Forced : No


  318. Text #22

  319. ID : 24

  320. Format : UTF-8

  321. Codec ID : S_TEXT/UTF8

  322. Codec ID/Info : UTF-8 Plain Text

  323. Duration : 1 h 45 min

  324. Bit rate : 32 b/s

  325. Count of elements : 1142

  326. Stream size : 25.4 KiB (0%)

  327. Language : Norwegian Bokmal

  328. Default : No

  329. Forced : No


  330. Text #23

  331. ID : 25

  332. Format : UTF-8

  333. Codec ID : S_TEXT/UTF8

  334. Codec ID/Info : UTF-8 Plain Text

  335. Duration : 1 h 45 min

  336. Bit rate : 34 b/s

  337. Count of elements : 1184

  338. Stream size : 26.8 KiB (0%)

  339. Language : Dutch

  340. Default : No

  341. Forced : No


  342. Text #24

  343. ID : 26

  344. Format : UTF-8

  345. Codec ID : S_TEXT/UTF8

  346. Codec ID/Info : UTF-8 Plain Text

  347. Duration : 1 h 45 min

  348. Bit rate : 33 b/s

  349. Count of elements : 996

  350. Stream size : 25.5 KiB (0%)

  351. Language : Polish

  352. Default : No

  353. Forced : No


  354. Text #25

  355. ID : 27

  356. Format : UTF-8

  357. Codec ID : S_TEXT/UTF8

  358. Codec ID/Info : UTF-8 Plain Text

  359. Duration : 1 h 45 min

  360. Bit rate : 33 b/s

  361. Count of elements : 1138

  362. Stream size : 26.0 KiB (0%)

  363. Title : Brasil

  364. Language : Portuguese

  365. Default : No

  366. Forced : No


  367. Text #26

  368. ID : 28

  369. Format : UTF-8

  370. Codec ID : S_TEXT/UTF8

  371. Codec ID/Info : UTF-8 Plain Text

  372. Duration : 1 h 45 min

  373. Bit rate : 35 b/s

  374. Count of elements : 1204

  375. Stream size : 27.5 KiB (0%)

  376. Title : Portugal

  377. Language : Portuguese

  378. Default : No

  379. Forced : No


  380. Text #27

  381. ID : 29

  382. Format : UTF-8

  383. Codec ID : S_TEXT/UTF8

  384. Codec ID/Info : UTF-8 Plain Text

  385. Duration : 1 h 45 min

  386. Bit rate : 35 b/s

  387. Count of elements : 1074

  388. Stream size : 27.6 KiB (0%)

  389. Language : Romanian

  390. Default : No

  391. Forced : No


  392. Text #28

  393. ID : 30

  394. Format : UTF-8

  395. Codec ID : S_TEXT/UTF8

  396. Codec ID/Info : UTF-8 Plain Text

  397. Duration : 1 h 45 min

  398. Bit rate : 59 b/s

  399. Count of elements : 1188

  400. Stream size : 45.6 KiB (0%)

  401. Language : Russian

  402. Default : No

  403. Forced : No


  404. Text #29

  405. ID : 31

  406. Format : UTF-8

  407. Codec ID : S_TEXT/UTF8

  408. Codec ID/Info : UTF-8 Plain Text

  409. Duration : 1 h 45 min

  410. Bit rate : 33 b/s

  411. Count of elements : 1069

  412. Stream size : 25.7 KiB (0%)

  413. Language : Swedish

  414. Default : No

  415. Forced : No


  416. Text #30

  417. ID : 32

  418. Format : UTF-8

  419. Codec ID : S_TEXT/UTF8

  420. Codec ID/Info : UTF-8 Plain Text

  421. Duration : 1 h 45 min

  422. Bit rate : 85 b/s

  423. Count of elements : 1211

  424. Stream size : 66.1 KiB (0%)

  425. Language : Thai

  426. Default : No

  427. Forced : No


  428. Text #31

  429. ID : 33

  430. Format : UTF-8

  431. Codec ID : S_TEXT/UTF8

  432. Codec ID/Info : UTF-8 Plain Text

  433. Duration : 1 h 45 min

  434. Bit rate : 36 b/s

  435. Count of elements : 1150

  436. Stream size : 28.6 KiB (0%)

  437. Language : Turkish

  438. Default : No

  439. Forced : No


  440. Text #32

  441. ID : 34

  442. Format : UTF-8

  443. Codec ID : S_TEXT/UTF8

  444. Codec ID/Info : UTF-8 Plain Text

  445. Duration : 1 h 45 min

  446. Bit rate : 55 b/s

  447. Count of elements : 1207

  448. Stream size : 42.7 KiB (0%)

  449. Language : Ukrainian

  450. Default : No

  451. Forced : No


  452. Text #33

  453. ID : 35

  454. Format : UTF-8

  455. Codec ID : S_TEXT/UTF8

  456. Codec ID/Info : UTF-8 Plain Text

  457. Duration : 1 h 45 min

  458. Bit rate : 47 b/s

  459. Count of elements : 1180

  460. Stream size : 36.8 KiB (0%)

  461. Language : Vietnamese

  462. Default : No

  463. Forced : No


  464. Text #34

  465. ID : 36

  466. Format : UTF-8

  467. Codec ID : S_TEXT/UTF8

  468. Codec ID/Info : UTF-8 Plain Text

  469. Duration : 1 h 45 min

  470. Bit rate : 33 b/s

  471. Count of elements : 1213

  472. Stream size : 25.8 KiB (0%)

  473. Title : 中文(简体)

  474. Language : Chinese

  475. Default : No

  476. Forced : No


  477. Text #35

  478. ID : 37

  479. Format : UTF-8

  480. Codec ID : S_TEXT/UTF8

  481. Codec ID/Info : UTF-8 Plain Text

  482. Duration : 1 h 45 min

  483. Bit rate : 32 b/s

  484. Count of elements : 1213

  485. Stream size : 25.0 KiB (0%)

  486. Title : 中文(繁體)

  487. Language : Chinese

  488. Default : No

  489. Forced : No


复制代码




文件下载


除非特别注明,本文『娃娃屋[简繁英字幕].Doll.House.2022.1080p.NF.WEB-DL.DDP5.1.x264-MOMOWEB 3.55GB』来源于互联网机器人自动抓取,非本站原创。 浮游电影网不对本文拥有版权,如有侵犯,请联系邮箱:fuyouu#yandex.com[#换成@]投诉。我们会在15个工作日内删除。 但烦请转载时请标明出处:“本文转载于『浮游电影网』,原文地址:https://www.fuyouu.com/22961.html

评论吧骚年!

发表你的见解   

昵称*

E-mail*(建议输入,以便收到博主回复的提示邮件)

验证码*

您可以使用eMule或eMule Mod(Windows)、aMule(Win、Linux、Mac)等软件下载eD2k链接。。
eMule收藏集(.emulecollection)文件是您选中的所有链接的列表文件。eMule可以直接下载它们。
按住SHIFT键选择可以选中多个选择框。
可用文件名和大小选择器来选择文件。
文件名选择器帮您根据文件名称或后缀来选择文件。不分大小写。
符号使用:
和:空格( )、+
不包含:-
或:|
转义:一对英文引号("");
匹配开头:^
匹配结尾:$
例如:
选中所有名称中包含有“eMule”或“0.49c”字眼,但不包含有“exe”字眼的:emule|0.49c -exe
选中所有名称的开头是“eMule”,结尾是“0.49c”的:^emule 0.49c$
选中所有名称中带有“eMule 0.49c”的(必须是“eMule 0.49c”,中间没有别的字符,不能是“eMule fake 0.49c”),需要转义:"emule 0.49c"
大小选择器帮您根据文件大小选择文件。