当前位置: 首页 >> 日韩电影 >> 归乡[中文字幕].Come.Back.Home.2022.1080p.WEB-DL.H264.AAC-MOMOWEB 3.13GB >> 正文

归乡[中文字幕].Come.Back.Home.2022.1080p.WEB-DL.H264.AAC-MOMOWEB 3.13GB

2022年12月31日 08:33:05     电影发布:来源于网络     电影分类:日韩电影     评论(0)    

◎标 题 归乡

◎译 名 Come Back Home / 笑子當老大

◎片 名 컴백홈

◎年 代 2022

◎产 地 韩国

◎类 别 喜剧

◎语 言 韩语

◎上映日期 2022-10-05(韩国)

◎IMDb链接 https://www.imdb.com/title//

◎豆瓣链接 https://movie.douban.com/subject/35460343/

◎片 长 120分钟(韩国)

◎导 演 李延宇 Yeon-woo Lee

◎演 员 宋清晨 Sae-byeok Song

罗美兰 Mi-ran Ra

李凡秀 Beom-su Lee

◎简 介

讲述了一个想要离开故乡开始新生活而苦苦挣扎的男人在故乡与老朋友重逢,结果卷入始料未及的事件的喜剧片。

  1. ##### MediaInfo ######

  2. General

  3. Unique ID : 264200195401315679460163694723875240008 (0xC6C31B54DC91E8BB11252BA971407848)

  4. Complete name : Come.Back.Home.2022.1080p.WEB-DL.H264.AAC-MOMOWEB.mkv

  5. Format : Matroska

  6. Format version : Version 4

  7. File size : 3.13 GiB

  8. Duration : 1 h 59 min

  9. Overall bit rate : 3 748 kb/s

  10. Encoded date : UTC 2022-12-30 01:51:05

  11. Writing application : mkvmerge v69.0.0 ('Day And Age') 64-bit

  12. Writing library : libebml v1.4.2 + libmatroska v1.6.4


  13. Video

  14. ID : 1

  15. Format : AVC

  16. Format/Info : Advanced Video Codec

  17. Format profile : [email protected]

  18. Format settings : CABAC / 1 Ref Frames

  19. Format settings, CABAC : Yes

  20. Format settings, Reference frames : 1 frame

  21. Format settings, GOP : M=1, N=60

  22. Codec ID : V_MPEG4/ISO/AVC

  23. Duration : 1 h 59 min

  24. Bit rate mode : Constant

  25. Bit rate : 3 620 kb/s

  26. Nominal bit rate : 4 000 kb/s

  27. Width : 1 920 pixels

  28. Height : 1 080 pixels

  29. Display aspect ratio : 16:9

  30. Frame rate mode : Constant

  31. Frame rate : 29.970 (30000/1001) FPS

  32. Color space : YUV

  33. Chroma subsampling : 4:2:0

  34. Bit depth : 8 bits

  35. Scan type : Progressive

  36. Bits/(Pixel*Frame) : 0.058

  37. Stream size : 3.02 GiB (97%)

  38. Default : Yes

  39. Forced : No


  40. Audio

  41. ID : 2

  42. Format : AAC LC

  43. Format/Info : Advanced Audio Codec Low Complexity

  44. Codec ID : A_AAC-2

  45. Duration : 1 h 59 min

  46. Bit rate : 125 kb/s

  47. Channel(s) : 2 channels

  48. Channel layout : L R

  49. Sampling rate : 48.0 kHz

  50. Frame rate : 46.875 FPS (1024 SPF)

  51. Compression mode : Lossy

  52. Stream size : 107 MiB (3%)

  53. Title : Korean

  54. Language : Korean

  55. Default : Yes

  56. Forced : No


复制代码





文件下载




除非特别注明,本文『归乡[中文字幕].Come.Back.Home.2022.1080p.WEB-DL.H264.AAC-MOMOWEB 3.13GB』来源于互联网机器人自动抓取,非本站原创。 浮游电影网不对本文拥有版权,如有侵犯,请联系邮箱:fuyouu#yandex.com[#换成@]投诉。我们会在15个工作日内删除。 但烦请转载时请标明出处:“本文转载于『浮游电影网』,原文地址:https://www.fuyouu.com/22960.html

评论吧骚年!

发表你的见解   

昵称*

E-mail*(建议输入,以便收到博主回复的提示邮件)

验证码*

您可以使用eMule或eMule Mod(Windows)、aMule(Win、Linux、Mac)等软件下载eD2k链接。。
eMule收藏集(.emulecollection)文件是您选中的所有链接的列表文件。eMule可以直接下载它们。
按住SHIFT键选择可以选中多个选择框。
可用文件名和大小选择器来选择文件。
文件名选择器帮您根据文件名称或后缀来选择文件。不分大小写。
符号使用:
和:空格( )、+
不包含:-
或:|
转义:一对英文引号("");
匹配开头:^
匹配结尾:$
例如:
选中所有名称中包含有“eMule”或“0.49c”字眼,但不包含有“exe”字眼的:emule|0.49c -exe
选中所有名称的开头是“eMule”,结尾是“0.49c”的:^emule 0.49c$
选中所有名称中带有“eMule 0.49c”的(必须是“eMule 0.49c”,中间没有别的字符,不能是“eMule fake 0.49c”),需要转义:"emule 0.49c"
大小选择器帮您根据文件大小选择文件。