当前位置: 首页 >> 日韩电影 >> 萍水相腐檐廊下[简繁字幕].BL.Metamorphosis.2022.1080p.BluRay.x265.10bit-CTRLHD 5.46GB >> 正文

萍水相腐檐廊下[简繁字幕].BL.Metamorphosis.2022.1080p.BluRay.x265.10bit-CTRLHD 5.46GB

2022年12月30日 08:34:43     电影发布:来源于网络     电影分类:日韩电影     评论(0)    

◎标 题 萍水相腐檐廊下

◎译 名 春心萌动的老屋缘廊(台) / 屋檐下的美妙时光 / BL Metamorphosis

◎片 名 メタモルフォーゼの縁側

◎年 代 2022

◎产 地 日本

◎类 别 剧情 / 爱情

◎语 言 日语

◎上映日期 2022-06-17(日本)

◎IMDb评分 7/10 (26人评价)

◎IMDb链接 https://www.imdb.com/title/tt20413256/

◎豆瓣评分 8.2/10 (885人评价)

◎豆瓣链接 https://movie.douban.com/subject/35316486/

◎片 长 118分钟

◎导 演 狩山俊辅 Shunsuke Kariyama

◎编 剧 冈田惠和 Yoshikazu Okada

◎演 员 芦田爱菜 Mana Ashida

宫本信子 Nobuko Miyamoto

高桥恭平 Takahashi Kyohei

古川琴音 Kotone Furukawa

生田智子 Tomoko Ikuta

光石研 Ken Mitsuishi

菊池和澄 Asumi Kikuchi

◎简 介

影片讲述不擅长与人交往、经常偷偷看BL漫画的17岁女高中生佐山丽(芦田 饰),与丈夫去世后独自生活、同样爱好BL题材的75岁老妇人市井野雪(宫本 饰),两个兴趣相投的人之间建立的一段忘年交。

  1. ##### MediaInfo ######

  2. General

  3. Unique ID : 274806407173990324467102397471989006230 (0xCEBDC9F1FB1E0E338AD74A4293B97F96)

  4. Complete name : BL.Metamorphosis.2022.1080p.BluRay.x265.10bit-CTRLHD.mkv

  5. Format : Matroska

  6. Format version : Version 4

  7. File size : 5.46 GiB

  8. Duration : 1 h 57 min

  9. Overall bit rate : 6 646 kb/s

  10. Movie name : BL Metamorphosis

  11. Encoded date : UTC 2022-12-28 16:03:29

  12. Writing application : mkvmerge v72.0.0 ('Minuano (Six-eight)') 64-bit

  13. Writing library : libebml v1.4.4 + libmatroska v1.7.1

  14. Attachments : FZZhunYuan-M02.ttf / 华康华综体.ttf


  15. Video

  16. ID : 1

  17. Format : HEVC

  18. Format/Info : High Efficiency Video Coding

  19. Format profile : Main [email protected]@Main

  20. Codec ID : V_MPEGH/ISO/HEVC

  21. Duration : 1 h 57 min

  22. Bit rate : 5 987 kb/s

  23. Width : 1 920 pixels

  24. Height : 1 036 pixels

  25. Display aspect ratio : 1.85:1

  26. Frame rate mode : Constant

  27. Frame rate : 23.976 (24000/1001) FPS

  28. Color space : YUV

  29. Chroma subsampling : 4:2:0

  30. Bit depth : 10 bits

  31. Bits/(Pixel*Frame) : 0.126

  32. Stream size : 4.92 GiB (90%)

  33. Title : Jubowo @ WiKi

  34. Language : Japanese

  35. Default : Yes

  36. Forced : No


  37. Audio

  38. ID : 2

  39. Format : AC-3

  40. Format/Info : Audio Coding 3

  41. Commercial name : Dolby Digital

  42. Codec ID : A_AC3

  43. Duration : 1 h 57 min

  44. Bit rate mode : Constant

  45. Bit rate : 640 kb/s

  46. Channel(s) : 6 channels

  47. Channel layout : L R C LFE Ls Rs

  48. Sampling rate : 48.0 kHz

  49. Frame rate : 31.250 FPS (1536 SPF)

  50. Compression mode : Lossy

  51. Stream size : 539 MiB (10%)

  52. Language : Japanese

  53. Service kind : Complete Main

  54. Default : Yes

  55. Forced : No


  56. Text #1

  57. ID : 3

  58. Format : ASS

  59. Codec ID : S_TEXT/ASS

  60. Codec ID/Info : Advanced Sub Station Alpha

  61. Duration : 1 h 56 min

  62. Bit rate : 65 b/s

  63. Count of elements : 1329

  64. Compression mode : Lossless

  65. Stream size : 55.8 KiB (0%)

  66. Title : 简体

  67. Language : Chinese

  68. Default : Yes

  69. Forced : No


  70. Text #2

  71. ID : 4

  72. Format : ASS

  73. Codec ID : S_TEXT/ASS

  74. Codec ID/Info : Advanced Sub Station Alpha

  75. Duration : 1 h 56 min

  76. Bit rate : 65 b/s

  77. Count of elements : 1329

  78. Compression mode : Lossless

  79. Stream size : 55.8 KiB (0%)

  80. Title : 繁體

  81. Language : Chinese

  82. Default : No

  83. Forced : No


  84. Menu

  85. 00:00:00.000 : en:Chapter 01

  86. 00:07:17.354 : en:Chapter 02

  87. 00:14:33.748 : en:Chapter 03

  88. 00:20:04.036 : en:Chapter 04

  89. 00:31:29.137 : en:Chapter 05

  90. 00:43:43.788 : en:Chapter 06

  91. 00:50:41.121 : en:Chapter 07

  92. 01:03:17.961 : en:Chapter 08

  93. 01:07:46.062 : en:Chapter 09

  94. 01:17:30.437 : en:Chapter 10

  95. 01:28:32.599 : en:Chapter 11

  96. 01:31:01.331 : en:Chapter 12

  97. 01:39:15.867 : en:Chapter 13

  98. 01:52:35.958 : en:Chapter 14


复制代码




文件下载


除非特别注明,本文『萍水相腐檐廊下[简繁字幕].BL.Metamorphosis.2022.1080p.BluRay.x265.10bit-CTRLHD 5.46GB』来源于互联网机器人自动抓取,非本站原创。 浮游电影网不对本文拥有版权,如有侵犯,请联系邮箱:fuyouu#yandex.com[#换成@]投诉。我们会在15个工作日内删除。 但烦请转载时请标明出处:“本文转载于『浮游电影网』,原文地址:https://www.fuyouu.com/22958.html

评论吧骚年!

发表你的见解   

昵称*

E-mail*(建议输入,以便收到博主回复的提示邮件)

验证码*

您可以使用eMule或eMule Mod(Windows)、aMule(Win、Linux、Mac)等软件下载eD2k链接。。
eMule收藏集(.emulecollection)文件是您选中的所有链接的列表文件。eMule可以直接下载它们。
按住SHIFT键选择可以选中多个选择框。
可用文件名和大小选择器来选择文件。
文件名选择器帮您根据文件名称或后缀来选择文件。不分大小写。
符号使用:
和:空格( )、+
不包含:-
或:|
转义:一对英文引号("");
匹配开头:^
匹配结尾:$
例如:
选中所有名称中包含有“eMule”或“0.49c”字眼,但不包含有“exe”字眼的:emule|0.49c -exe
选中所有名称的开头是“eMule”,结尾是“0.49c”的:^emule 0.49c$
选中所有名称中带有“eMule 0.49c”的(必须是“eMule 0.49c”,中间没有别的字符,不能是“eMule fake 0.49c”),需要转义:"emule 0.49c"
大小选择器帮您根据文件大小选择文件。