当前位置: 首页 >> 欧美电影 >> 天堂城[简英字幕].Paradise.City.2022.1080p.BluRay.DTS.x265-10bit-BATHD 6.07GB >> 正文

天堂城[简英字幕].Paradise.City.2022.1080p.BluRay.DTS.x265-10bit-BATHD 6.07GB

2022年12月30日 08:33:59     电影发布:来源于网络     电影分类:欧美电影     评论(0)    

◎标 题 天堂城

◎片 名 Paradise City

◎年 代 2022

◎产 地 美国

◎类 别 动作

◎语 言 英语

◎上映日期 2022-11-11(美国)

◎IMDb评分 3.6/10 (1057人评价)

◎IMDb链接 https://www.imdb.com/title/tt14656632/

◎豆瓣评分 4.3/10 (151人评价)

◎豆瓣链接 https://movie.douban.com/subject/35463207/

◎片 长 92分钟

◎导 演 查克·拉塞尔 Chuck Russell

◎编 剧 科里·拉奇 Corey Large

爱德华·德雷克 Edward Drake

◎演 员 布鲁斯·威利斯 Bruce Willis

约翰·特拉沃尔塔 John Travolta

斯蒂芬·多尔夫 Stephen Dorff

布兰斯康比·里奇蒙德 Branscombe Richmond

布莱克·詹纳 Blake Jenner

凯特‧卡茨曼 Kate Katzman

科里·拉奇 Corey Large

巴迪·沃特金斯 Buddy Watkins

Maya Ford Maya Ford

◎简 介

布鲁斯·威利斯、约翰·特拉沃尔塔将领衔主演动作新片[天堂城](Paradise City,暂译),泰国演员普莱亚·伦德伯格(Praya Lundberg)担任女主角。该片由查克·拉塞尔([变相怪杰])执导,科里·拉奇([外星罪孽])、艾德·约翰共同操刀剧本。该片讲述叛逆的赏金猎人瑞安·斯旺(威利斯饰)必须在夏威夷的犯罪世界中开辟自己的道路,并向杀害他父亲的头目(特拉沃尔塔饰)复仇。据悉本片的风格类似于[迈阿密风云]。[天堂城]将于下周一在夏威夷开拍。

  1. ##### MediaInfo ######

  2. General

  3. Unique ID : 278296969821914152106316897050869836326 (0xD15E0BF88B2E67CE877C2268EBDF2A26)

  4. Complete name : Paradise.City.2022.1080p.BluRay.DTS.x265-10bit-BATHD.mkv

  5. Format : Matroska

  6. Format version : Version 4

  7. File size : 6.07 GiB

  8. Duration : 1 h 33 min

  9. Overall bit rate : 9 334 kb/s

  10. Movie name : Paradise City 2022 1080p BluRay DTS x265-10bit-HDS

  11. Encoded date : UTC 2022-12-29 00:16:07

  12. Writing application : mkvmerge v67.0.0 ('Under Stars') 64-bit

  13. Writing library : libebml v1.4.2 + libmatroska v1.6.4


  14. Video

  15. ID : 1

  16. Format : HEVC

  17. Format/Info : High Efficiency Video Coding

  18. Format profile : Main [email protected]@High

  19. Codec ID : V_MPEGH/ISO/HEVC

  20. Duration : 1 h 33 min

  21. Bit rate : 7 782 kb/s

  22. Width : 1 920 pixels

  23. Height : 804 pixels

  24. Display aspect ratio : 2.40:1

  25. Frame rate mode : Constant

  26. Frame rate : 23.976 (24000/1001) FPS

  27. Color space : YUV

  28. Chroma subsampling : 4:2:0

  29. Bit depth : 10 bits

  30. Bits/(Pixel*Frame) : 0.210

  31. Stream size : 5.06 GiB (83%)

  32. Title : [email protected]

  33. Writing library : x265 - H.265/HEVC codec

  34. Default : Yes

  35. Forced : No


  36. Audio

  37. ID : 2

  38. Format : DTS

  39. Format/Info : Digital Theater Systems

  40. Codec ID : A_DTS

  41. Duration : 1 h 33 min

  42. Bit rate mode : Constant

  43. Bit rate : 1 509 kb/s

  44. Channel(s) : 6 channels

  45. Channel layout : C L R Ls Rs LFE

  46. Sampling rate : 48.0 kHz

  47. Frame rate : 93.750 FPS (512 SPF)

  48. Bit depth : 24 bits

  49. Compression mode : Lossy

  50. Stream size : 1 004 MiB (16%)

  51. Title : English

  52. Language : English

  53. Default : Yes

  54. Forced : No


  55. Text #1

  56. ID : 3

  57. Format : PGS

  58. Muxing mode : zlib

  59. Codec ID : S_HDMV/PGS

  60. Codec ID/Info : Picture based subtitle format used on BDs/HD-DVDs

  61. Duration : 1 h 29 min

  62. Bit rate : 44.2 kb/s

  63. Count of elements : 2856

  64. Stream size : 28.3 MiB (0%)

  65. Title : ENG

  66. Language : English

  67. Default : Yes

  68. Forced : No


  69. Text #2

  70. ID : 4

  71. Format : PGS

  72. Muxing mode : zlib

  73. Codec ID : S_HDMV/PGS

  74. Codec ID/Info : Picture based subtitle format used on BDs/HD-DVDs

  75. Duration : 1 h 29 min

  76. Bit rate : 35.4 kb/s

  77. Count of elements : 2506

  78. Stream size : 22.7 MiB (0%)

  79. Title : CHS

  80. Language : Chinese

  81. Default : Yes

  82. Forced : No


  83. Menu

  84. 00:00:00.000 : en:第 01 章

  85. 00:04:26.266 : en:第 02 章

  86. 00:09:57.597 : en:第 03 章

  87. 00:13:12.792 : en:第 04 章

  88. 00:18:11.090 : en:第 05 章

  89. 00:25:20.519 : en:第 06 章

  90. 00:32:46.173 : en:第 07 章

  91. 00:36:58.216 : en:第 08 章

  92. 00:44:24.745 : en:第 09 章

  93. 00:49:12.950 : en:第 10 章

  94. 00:55:16.313 : en:第 11 章

  95. 01:00:12.609 : en:第 12 章

  96. 01:06:35.408 : en:第 13 章

  97. 01:12:56.998 : en:第 14 章

  98. 01:18:37.713 : en:第 15 章

  99. 01:23:26.418 : en:第 16 章


复制代码




文件下载


除非特别注明,本文『天堂城[简英字幕].Paradise.City.2022.1080p.BluRay.DTS.x265-10bit-BATHD 6.07GB』来源于互联网机器人自动抓取,非本站原创。 浮游电影网不对本文拥有版权,如有侵犯,请联系邮箱:fuyouu#yandex.com[#换成@]投诉。我们会在15个工作日内删除。 但烦请转载时请标明出处:“本文转载于『浮游电影网』,原文地址:https://www.fuyouu.com/22957.html

评论吧骚年!

发表你的见解   

昵称*

E-mail*(建议输入,以便收到博主回复的提示邮件)

验证码*

您可以使用eMule或eMule Mod(Windows)、aMule(Win、Linux、Mac)等软件下载eD2k链接。。
eMule收藏集(.emulecollection)文件是您选中的所有链接的列表文件。eMule可以直接下载它们。
按住SHIFT键选择可以选中多个选择框。
可用文件名和大小选择器来选择文件。
文件名选择器帮您根据文件名称或后缀来选择文件。不分大小写。
符号使用:
和:空格( )、+
不包含:-
或:|
转义:一对英文引号("");
匹配开头:^
匹配结尾:$
例如:
选中所有名称中包含有“eMule”或“0.49c”字眼,但不包含有“exe”字眼的:emule|0.49c -exe
选中所有名称的开头是“eMule”,结尾是“0.49c”的:^emule 0.49c$
选中所有名称中带有“eMule 0.49c”的(必须是“eMule 0.49c”,中间没有别的字符,不能是“eMule fake 0.49c”),需要转义:"emule 0.49c"
大小选择器帮您根据文件大小选择文件。