当前位置: 首页 >> 港台电影 >> 机动部队—人性[国粤多音轨/简繁字幕].Tactical.Unit.Human.Nature.2008.BluRay.1080p.x265.10bit.2Audio-MiniHD 4.76GB >> 正文

机动部队—人性[国粤多音轨/简繁字幕].Tactical.Unit.Human.Nature.2008.BluRay.1080p.x265.10bit.2Audio-MiniHD 4.76GB

2022年12月30日 08:31:32     电影发布:来源于网络     电影分类:港台电影     评论(0)    

◎标 题 机动部队—人性

◎译 名 机动部队之人性 / Tactical Unit: Human Nature

◎年 代 2008

◎产 地 中国香港

◎类 别 剧情 / 惊悚 / 犯罪

◎语 言 粤语

◎上映日期 2008

◎IMDb评分 5.9/10 (180人评价)

◎IMDb链接 https://www.imdb.com/title/tt1401664/

◎豆瓣评分 6.4/10 (6889人评价)

◎豆瓣链接 https://movie.douban.com/subject/3621418/

◎片 长 88分钟

◎导 演 吴耀权 Yiu-Kuen Ng

◎演 员 任达华 Simon Yam

邵美琪 Maggie Siu

林家栋 Ka Tung Lam

林雪 Suet Lam

黄燕强 Wong Yin Keung

谭天宝 Tin-Bo Tam

伍允龙 Philip Ng

吴廷烨 Berg Ng

黎志伟

杜琪峰 Johnnie To

◎简 介

重案组肥棠(林雪 饰)嗜赌成性,欠下高利贷,终日被放债人陈耀雄(林家栋 饰)追讨。肥棠被逼无奈,竟打起警署内赃款的主意,他盗取赃款却仍填不上债务窟窿,只好藏进小旅馆躲避阿雄。PTU的沙展阿森(任达华 饰)得知肥棠私盗赃款,想方设法保护和帮助好友,却毕竟能力有限。

偶然机会,肥棠和隔壁四个潮州同乡相识,更因其专业车手的经历和技术得到对方赏识。不曾想这四人竟是内地过来的悍匪,他们力邀肥棠入伙,为金钱和道义所惑的肥棠踟蹰不定。迷途的警察能否找到归来的路……

  1. ##### MediaInfo ######

  2. General

  3. Unique ID : 234230656664541356334681240440117173369 (0xB0372EFD8CE93BB7A664CE271FC89C79)

  4. Complete name : Tactical.Unit.Human.Nature.2008.BluRay.1080p.x265.10bit.2Audio-MiniHD.mkv

  5. Format : Matroska

  6. Format version : Version 4

  7. File size : 4.76 GiB

  8. Duration : 1 h 27 min

  9. Overall bit rate : 7 781 kb/s

  10. Encoded date : UTC 2017-12-05 02:38:57

  11. Writing application : mkvmerge v16.0.0 ('Protest') 32-bit

  12. Writing library : libebml v1.3.5 + libmatroska v1.4.8


  13. Video

  14. ID : 5

  15. Format : HEVC

  16. Format/Info : High Efficiency Video Coding

  17. Format profile : Main [email protected]@Main

  18. Codec ID : V_MPEGH/ISO/HEVC

  19. Duration : 1 h 27 min

  20. Bit rate : 6 473 kb/s

  21. Width : 1 920 pixels

  22. Height : 1 080 pixels

  23. Display aspect ratio : 16:9

  24. Frame rate mode : Constant

  25. Frame rate : 24.000 FPS

  26. Color space : YUV

  27. Chroma subsampling : 4:2:0

  28. Bit depth : 10 bits

  29. Bits/(Pixel*Frame) : 0.130

  30. Stream size : 3.96 GiB (83%)

  31. Writing library : x265 2.5+2-18fa144d453e:[Windows][GCC 7.1.0][64 bit] 10bit

  32. Encoding settings : cpuid=1173503 / frame-threads=3 / numa-pools=8 / wpp / no-pmode / no-pme / no-psnr / no-ssim / log-level=2 / input-csp=1 / input-res=1920x1080 / interlace=0 / total-frames=126099 / level-idc=0 / high-tier=1 / uhd-bd=0 / ref=5 / no-allow-non-conformance / no-repeat-headers / annexb / no-aud / no-hrd / info / hash=0 / no-temporal-layers / no-open-gop / min-keyint=1 / keyint=360 / bframes=8 / b-adapt=2 / b-pyramid / bframe-bias=0 / rc-lookahead=40 / lookahead-slices=4 / scenecut=40 / no-intra-refresh / ctu=32 / min-cu-size=8 / rect / no-amp / max-tu-size=16 / tu-inter-depth=2 / tu-intra-depth=2 / limit-tu=4 / rdoq-level=1 / dynamic-rd=0.00 / ssim-rd / signhide / no-tskip / nr-intra=0 / nr-inter=0 / no-constrained-intra / no-strong-intra-smoothing / max-merge=3 / limit-refs=2 / limit-modes / me=3 / subme=5 / merange=25 / temporal-mvp / weightp / weightb / no-analyze-src-pics / deblock=-1:-1 / no-sao / no-sao-non-deblock / rd=4 / no-early-skip / rskip / no-fast-intra / no-tskip-fast / no-cu-lossless / b-intra / rdpenalty=1 / psy-rd=0.00 / psy-rdoq=3.00 / no-rd-refine / analysis-reuse-mode=0 / no-lossless / cbqpoffs=-2 / crqpoffs=-2 / rc=crf / crf=20.0 / qcomp=0.70 / qpstep=4 / stats-write=0 / stats-read=0 / ipratio=1.40 / pbratio=1.30 / aq-mode=2 / aq-strength=0.80 / cutree / zone-count=0 / no-strict-cbr / qg-size=16 / no-rc-grain / qpmax=69 / qpmin=0 / no-const-vbv / sar=1 / overscan=0 / videoformat=5 / range=0 / colorprim=1 / transfer=2 / colormatrix=2 / chromaloc=0 / display-window=0 / max-cll=0,0 / min-luma=0 / max-luma=1023 / log2-max-poc-lsb=8 / vui-timing-info / vui-hrd-info / slices=1 / opt-qp-pps / opt-ref-list-length-pps / no-multi-pass-opt-rps / scenecut-bias=0.05 / no-opt-cu-delta-qp / no-aq-motion / no-hdr / no-hdr-opt / no-dhdr10-opt / analysis-reuse-level=5 / scale-factor=0 / refine-intra=0 / refine-inter=0 / refine-mv=0 / no-limit-sao / ctu-info=0

  33. Default : Yes

  34. Forced : No

  35. Color range : Limited

  36. Color primaries : BT.709


  37. Audio #1

  38. ID : 1

  39. Format : AC-3

  40. Format/Info : Audio Coding 3

  41. Commercial name : Dolby Digital

  42. Codec ID : A_AC3

  43. Duration : 1 h 27 min

  44. Bit rate mode : Constant

  45. Bit rate : 640 kb/s

  46. Channel(s) : 6 channels

  47. Channel layout : L R C LFE Ls Rs

  48. Sampling rate : 48.0 kHz

  49. Frame rate : 31.250 FPS (1536 SPF)

  50. Compression mode : Lossy

  51. Stream size : 401 MiB (8%)

  52. Title : 粤语

  53. Language : Chinese

  54. Service kind : Complete Main

  55. Default : Yes

  56. Forced : No


  57. Audio #2

  58. ID : 3

  59. Format : AC-3

  60. Format/Info : Audio Coding 3

  61. Commercial name : Dolby Digital

  62. Codec ID : A_AC3

  63. Duration : 1 h 27 min

  64. Bit rate mode : Constant

  65. Bit rate : 640 kb/s

  66. Channel(s) : 6 channels

  67. Channel layout : L R C LFE Ls Rs

  68. Sampling rate : 48.0 kHz

  69. Frame rate : 31.250 FPS (1536 SPF)

  70. Compression mode : Lossy

  71. Stream size : 401 MiB (8%)

  72. Title : 国语

  73. Language : Chinese

  74. Service kind : Complete Main

  75. Default : No

  76. Forced : No


  77. Text #1

  78. ID : 2

  79. Format : PGS

  80. Muxing mode : zlib

  81. Codec ID : S_HDMV/PGS

  82. Codec ID/Info : Picture based subtitle format used on BDs/HD-DVDs

  83. Duration : 1 h 25 min

  84. Bit rate : 37.2 kb/s

  85. Count of elements : 2312

  86. Stream size : 22.7 MiB (0%)

  87. Title : 繁体

  88. Language : Chinese

  89. Default : Yes

  90. Forced : No


  91. Text #2

  92. ID : 4

  93. Format : PGS

  94. Muxing mode : zlib

  95. Codec ID : S_HDMV/PGS

  96. Codec ID/Info : Picture based subtitle format used on BDs/HD-DVDs

  97. Duration : 1 h 25 min

  98. Bit rate : 35.4 kb/s

  99. Count of elements : 2312

  100. Stream size : 21.6 MiB (0%)

  101. Title : 简体

  102. Language : Chinese

  103. Default : No

  104. Forced : No


复制代码




文件下载


除非特别注明,本文『机动部队—人性[国粤多音轨/简繁字幕].Tactical.Unit.Human.Nature.2008.BluRay.1080p.x265.10bit.2Audio-MiniHD 4.76GB』来源于互联网机器人自动抓取,非本站原创。 浮游电影网不对本文拥有版权,如有侵犯,请联系邮箱:fuyouu#yandex.com[#换成@]投诉。我们会在15个工作日内删除。 但烦请转载时请标明出处:“本文转载于『浮游电影网』,原文地址:https://www.fuyouu.com/22954.html

评论吧骚年!

发表你的见解   

昵称*

E-mail*(建议输入,以便收到博主回复的提示邮件)

验证码*

您可以使用eMule或eMule Mod(Windows)、aMule(Win、Linux、Mac)等软件下载eD2k链接。。
eMule收藏集(.emulecollection)文件是您选中的所有链接的列表文件。eMule可以直接下载它们。
按住SHIFT键选择可以选中多个选择框。
可用文件名和大小选择器来选择文件。
文件名选择器帮您根据文件名称或后缀来选择文件。不分大小写。
符号使用:
和:空格( )、+
不包含:-
或:|
转义:一对英文引号("");
匹配开头:^
匹配结尾:$
例如:
选中所有名称中包含有“eMule”或“0.49c”字眼,但不包含有“exe”字眼的:emule|0.49c -exe
选中所有名称的开头是“eMule”,结尾是“0.49c”的:^emule 0.49c$
选中所有名称中带有“eMule 0.49c”的(必须是“eMule 0.49c”,中间没有别的字符,不能是“eMule fake 0.49c”),需要转义:"emule 0.49c"
大小选择器帮您根据文件大小选择文件。