当前位置: 首页 >> 港台电影 >> 机动部队—同袍[国粤多音轨/简繁字幕].Tactica.Unit.Comrades.In.Arms.2008.BluRay.1080p.x265.10bit.2Audio-MiniHD 5.16GB >> 正文

机动部队—同袍[国粤多音轨/简繁字幕].Tactica.Unit.Comrades.In.Arms.2008.BluRay.1080p.x265.10bit.2Audio-MiniHD 5.16GB

2022年12月30日 08:30:41     电影发布:来源于网络     电影分类:港台电影     评论(0)    

◎标 题 机动部队—同袍

◎译 名 机动部队之同袍 / PTU 2 / Tactical Unit: Comrades in Arms

◎年 代 2009

◎产 地 中国香港

◎类 别 剧情 / 动作 / 犯罪

◎语 言 粤语

◎上映日期 2009-01-08

◎IMDb评分 6.1/10 (416人评价)

◎IMDb链接 https://www.imdb.com/title/tt1344008/

◎豆瓣评分 6.5/10 (12205人评价)

◎豆瓣链接 https://movie.douban.com/subject/3391271/

◎片 长 91 分钟

◎导 演 罗永昌 Wing-cheong Law

◎编 剧 游乃海 Nai-Hoi Yau

欧健儿 Kin-Yee Au

◎演 员 任达华 Simon Yam

邵美琪 Maggie Siu

林雪 Suet Lam

彭敬慈 Samuel Pang

施祖男 Vincent Sze

韩春 Chun Han

萧洪 Siu Hung

刘允 Yue Tau Wan

林敬刚 King-Kong Lam

黄智贤 Chi-yin Wong

李国麟 Kwok-Lun Lee

陆文卫 Man-Wai Luk

丁云山 Wan San Ding

林小明

林小强 Alvin Lam

杜琪峰 Johnnie To

钟志荣 Chi Wing Chung

郑兆强 Siu-keung Cheng

罗永昌 Wing-cheong Law

梁展纶 Allen Leung

莫若琦 Mango Mok

黄华和 Wah Wo Wong

◎简 介

森(任达华 饰)和May(邵美琪 饰)各自带领的机动小组成员间争强好胜,May的小组得到何长官赏识,娇纵傲慢,森一队心有不服,却无可奈何。

机动小组即将解散,但在执勤的最后一天发生一起抢劫案,劫匪逃入荒山。两支小组并为一队上山展开地毯式搜查。期间各种离奇状况不断,加上彼此矛盾重重,致使森和May分头行动,却遭遇诸多险阻。另一方面,为队员送饭的肥棠(林雪 饰)汽车抛锚,结果遭遇劫匪。官兵与强盗在山中展开了一场怪异惊险的捉迷藏游戏,而PTU同事间的友情也受到了考验……

  1. ##### MediaInfo ######

  2. General

  3. Unique ID : 220078516423822190772337197628925238272 (0xA591949AF902CD268923C8B04D815C00)

  4. Complete name : Tactica.Unit.Comrades.In.Arms.2008.BluRay.1080p.x265.10bit.2Audio-MiniHD.mkv

  5. Format : Matroska

  6. Format version : Version 4

  7. File size : 5.16 GiB

  8. Duration : 1 h 30 min

  9. Overall bit rate : 8 192 kb/s

  10. Encoded date : UTC 2017-12-04 17:07:06

  11. Writing application : mkvmerge v16.0.0 ('Protest') 32-bit

  12. Writing library : libebml v1.3.5 + libmatroska v1.4.8


  13. Video

  14. ID : 5

  15. Format : HEVC

  16. Format/Info : High Efficiency Video Coding

  17. Format profile : Main [email protected]@Main

  18. Codec ID : V_MPEGH/ISO/HEVC

  19. Duration : 1 h 30 min

  20. Bit rate : 6 898 kb/s

  21. Width : 1 920 pixels

  22. Height : 1 080 pixels

  23. Display aspect ratio : 16:9

  24. Frame rate mode : Constant

  25. Frame rate : 24.000 FPS

  26. Color space : YUV

  27. Chroma subsampling : 4:2:0

  28. Bit depth : 10 bits

  29. Bits/(Pixel*Frame) : 0.139

  30. Stream size : 4.35 GiB (84%)

  31. Writing library : x265 2.5+2-18fa144d453e:[Windows][GCC 7.1.0][64 bit] 10bit

  32. Encoding settings : cpuid=1173503 / frame-threads=3 / numa-pools=8 / wpp / no-pmode / no-pme / no-psnr / no-ssim / log-level=2 / input-csp=1 / input-res=1920x1080 / interlace=0 / total-frames=129896 / level-idc=0 / high-tier=1 / uhd-bd=0 / ref=5 / no-allow-non-conformance / no-repeat-headers / annexb / no-aud / no-hrd / info / hash=0 / no-temporal-layers / no-open-gop / min-keyint=1 / keyint=360 / bframes=8 / b-adapt=2 / b-pyramid / bframe-bias=0 / rc-lookahead=40 / lookahead-slices=4 / scenecut=40 / no-intra-refresh / ctu=32 / min-cu-size=8 / rect / no-amp / max-tu-size=16 / tu-inter-depth=2 / tu-intra-depth=2 / limit-tu=4 / rdoq-level=1 / dynamic-rd=0.00 / ssim-rd / signhide / no-tskip / nr-intra=0 / nr-inter=0 / no-constrained-intra / no-strong-intra-smoothing / max-merge=3 / limit-refs=2 / limit-modes / me=3 / subme=5 / merange=25 / temporal-mvp / weightp / weightb / no-analyze-src-pics / deblock=-1:-1 / no-sao / no-sao-non-deblock / rd=4 / no-early-skip / rskip / no-fast-intra / no-tskip-fast / no-cu-lossless / b-intra / rdpenalty=1 / psy-rd=0.00 / psy-rdoq=3.00 / no-rd-refine / analysis-reuse-mode=0 / no-lossless / cbqpoffs=-2 / crqpoffs=-2 / rc=crf / crf=20.0 / qcomp=0.70 / qpstep=4 / stats-write=0 / stats-read=0 / ipratio=1.40 / pbratio=1.30 / aq-mode=2 / aq-strength=0.80 / cutree / zone-count=0 / no-strict-cbr / qg-size=16 / no-rc-grain / qpmax=69 / qpmin=0 / no-const-vbv / sar=1 / overscan=0 / videoformat=5 / range=0 / colorprim=1 / transfer=2 / colormatrix=2 / chromaloc=0 / display-window=0 / max-cll=0,0 / min-luma=0 / max-luma=1023 / log2-max-poc-lsb=8 / vui-timing-info / vui-hrd-info / slices=1 / opt-qp-pps / opt-ref-list-length-pps / no-multi-pass-opt-rps / scenecut-bias=0.05 / no-opt-cu-delta-qp / no-aq-motion / no-hdr / no-hdr-opt / no-dhdr10-opt / analysis-reuse-level=5 / scale-factor=0 / refine-intra=0 / refine-inter=0 / refine-mv=0 / no-limit-sao / ctu-info=0

  33. Default : Yes

  34. Forced : No

  35. Color range : Limited

  36. Color primaries : BT.709


  37. Audio #1

  38. ID : 3

  39. Format : AC-3

  40. Format/Info : Audio Coding 3

  41. Commercial name : Dolby Digital

  42. Codec ID : A_AC3

  43. Duration : 1 h 30 min

  44. Bit rate mode : Constant

  45. Bit rate : 640 kb/s

  46. Channel(s) : 6 channels

  47. Channel layout : L R C LFE Ls Rs

  48. Sampling rate : 48.0 kHz

  49. Frame rate : 31.250 FPS (1536 SPF)

  50. Compression mode : Lossy

  51. Stream size : 413 MiB (8%)

  52. Title : 粤语

  53. Language : Chinese

  54. Service kind : Complete Main

  55. Default : Yes

  56. Forced : No


  57. Audio #2

  58. ID : 4

  59. Format : AC-3

  60. Format/Info : Audio Coding 3

  61. Commercial name : Dolby Digital

  62. Codec ID : A_AC3

  63. Duration : 1 h 30 min

  64. Bit rate mode : Constant

  65. Bit rate : 640 kb/s

  66. Channel(s) : 6 channels

  67. Channel layout : L R C LFE Ls Rs

  68. Sampling rate : 48.0 kHz

  69. Frame rate : 31.250 FPS (1536 SPF)

  70. Compression mode : Lossy

  71. Stream size : 413 MiB (8%)

  72. Title : 国语

  73. Language : Chinese

  74. Service kind : Complete Main

  75. Default : No

  76. Forced : No


  77. Text #1

  78. ID : 1

  79. Format : PGS

  80. Muxing mode : zlib

  81. Codec ID : S_HDMV/PGS

  82. Codec ID/Info : Picture based subtitle format used on BDs/HD-DVDs

  83. Duration : 1 h 25 min

  84. Bit rate : 17.8 kb/s

  85. Count of elements : 1433

  86. Stream size : 10.9 MiB (0%)

  87. Title : 繁体

  88. Language : Chinese

  89. Default : Yes

  90. Forced : No


  91. Text #2

  92. ID : 2

  93. Format : PGS

  94. Muxing mode : zlib

  95. Codec ID : S_HDMV/PGS

  96. Codec ID/Info : Picture based subtitle format used on BDs/HD-DVDs

  97. Duration : 1 h 25 min

  98. Bit rate : 17.0 kb/s

  99. Count of elements : 1433

  100. Stream size : 10.4 MiB (0%)

  101. Title : 简

  102. Language : Chinese

  103. Default : No

  104. Forced : No


复制代码





文件下载


除非特别注明,本文『机动部队—同袍[国粤多音轨/简繁字幕].Tactica.Unit.Comrades.In.Arms.2008.BluRay.1080p.x265.10bit.2Audio-MiniHD 5.16GB』来源于互联网机器人自动抓取,非本站原创。 浮游电影网不对本文拥有版权,如有侵犯,请联系邮箱:fuyouu#yandex.com[#换成@]投诉。我们会在15个工作日内删除。 但烦请转载时请标明出处:“本文转载于『浮游电影网』,原文地址:https://www.fuyouu.com/22953.html

评论吧骚年!

发表你的见解   

昵称*

E-mail*(建议输入,以便收到博主回复的提示邮件)

验证码*

您可以使用eMule或eMule Mod(Windows)、aMule(Win、Linux、Mac)等软件下载eD2k链接。。
eMule收藏集(.emulecollection)文件是您选中的所有链接的列表文件。eMule可以直接下载它们。
按住SHIFT键选择可以选中多个选择框。
可用文件名和大小选择器来选择文件。
文件名选择器帮您根据文件名称或后缀来选择文件。不分大小写。
符号使用:
和:空格( )、+
不包含:-
或:|
转义:一对英文引号("");
匹配开头:^
匹配结尾:$
例如:
选中所有名称中包含有“eMule”或“0.49c”字眼,但不包含有“exe”字眼的:emule|0.49c -exe
选中所有名称的开头是“eMule”,结尾是“0.49c”的:^emule 0.49c$
选中所有名称中带有“eMule 0.49c”的(必须是“eMule 0.49c”,中间没有别的字符,不能是“eMule fake 0.49c”),需要转义:"emule 0.49c"
大小选择器帮您根据文件大小选择文件。