当前位置: 首页 >> 港台电影 >> 机动部队[国粤多音轨/简繁字幕].PTU.2003.BluRay.1080p.x265.10bit.2Audio-MiniHD 5.05GB >> 正文

机动部队[国粤多音轨/简繁字幕].PTU.2003.BluRay.1080p.x265.10bit.2Audio-MiniHD 5.05GB

2022年12月30日 08:29:44     电影发布:来源于网络     电影分类:港台电影     评论(0)    

◎标 题 机动部队

◎译 名 PTU: Into the Perilous Night / PTU - Police Tactical Unit

◎片 名 PTU

◎年 代 2003

◎产 地 中国香港

◎类 别 剧情 / 犯罪

◎语 言 粤语

◎上映日期 2003-04-17(中国香港)

◎IMDb评分 7/10 (4664人评价)

◎IMDb链接 https://www.imdb.com/title/tt0250638/

◎豆瓣评分 8.2/10 (96334人评价)

◎豆瓣链接 https://movie.douban.com/subject/1302434/

◎片 长 88分钟

◎导 演 杜琪峰 Johnnie To

◎编 剧 欧健儿 Kin-Yee Au

游乃海 Nai-Hoi Yau

◎演 员 任达华 Simon Yam

邵美琪 Maggie Siu

林雪 Suet Lam

黄卓玲 Ruby Wong

黄浩然 Raymond Wong Ho-Yin

高雄 Eddy Ko

卢海鹏 Hoi-Pang Lo

元宝 Bo Yuen

张满源 Kenneth Cheung

利沙华 Courtney Wu

张志平 Chi Ping Chang

赵志诚 Chiu Chi Shing

赵珉和 Tamiyasu Cho

黄志伟 Chi Wai Wong

王天林 Tian-lin Wang

郑保瑞 Pou-Soi Cheang

杜琪峰 Johnnie To

丁云山 Wan San Ding

钟志荣 Chi Wing Chung

郑兆强 Siu-keung Cheng

罗永昌 Wing-cheong Law

叶淑华 Sukie Yip

罗永昌 Wing-cheong Law

马文现 Stephen Ma

黄华和 Wah Wo Wong

◎简 介

反黑组警长肥沙(林雪 饰),不慎丢失手枪。这件事非同小可,如果手枪被匪徒用去行凶,肥沙将大祸临头。PTU(警察机动部队)警官何文展(任达华 饰)出于义气,答应一定会在天亮之前寻回手枪,带几名手下开展了寻枪行动。另一方面,却在横生枝节:警员Kat(邵美琪 饰)死守纪律,坚持要将此事汇报上级处理;而在同一晚,CID的Madam张(黄卓玲 饰)在接手一单黑社会谋杀案时,怀疑肥沙与黑社会有染,由此与PTU发生意见分歧。人与人,部门与部门之间的矛盾、争斗和角力,在夜幕中徐徐拉开。而第二天清早,揭晓的真相,原来都在他们的意料之外……

  1. ##### MediaInfo ######

  2. General

  3. Unique ID : 211397938323798392849081808652905910451 (0x9F09C30FCEB6B814AA8543E96DA690B3)

  4. Complete name : PTU.2003.BluRay.1080p.x265.10bit.2Audio-MiniHD.mkv

  5. Format : Matroska

  6. Format version : Version 4

  7. File size : 5.05 GiB

  8. Duration : 1 h 27 min

  9. Overall bit rate : 8 219 kb/s

  10. Encoded date : UTC 2017-12-04 09:34:40

  11. Writing application : mkvmerge v16.0.0 ('Protest') 32-bit

  12. Writing library : libebml v1.3.5 + libmatroska v1.4.8


  13. Video

  14. ID : 1

  15. Format : HEVC

  16. Format/Info : High Efficiency Video Coding

  17. Format profile : Main [email protected]@Main

  18. Codec ID : V_MPEGH/ISO/HEVC

  19. Duration : 1 h 27 min

  20. Bit rate : 6 927 kb/s

  21. Width : 1 920 pixels

  22. Height : 818 pixels

  23. Display aspect ratio : 2.35:1

  24. Frame rate mode : Constant

  25. Frame rate : 24.000 FPS

  26. Color space : YUV

  27. Chroma subsampling : 4:2:0

  28. Bit depth : 10 bits

  29. Bits/(Pixel*Frame) : 0.184

  30. Stream size : 4.25 GiB (84%)

  31. Writing library : x265 2.5+2-18fa144d453e:[Windows][GCC 7.1.0][64 bit] 10bit

  32. Encoding settings : cpuid=1173503 / frame-threads=3 / numa-pools=8 / wpp / no-pmode / no-pme / no-psnr / no-ssim / log-level=2 / input-csp=1 / input-res=1920x818 / interlace=0 / total-frames=126553 / level-idc=0 / high-tier=1 / uhd-bd=0 / ref=5 / no-allow-non-conformance / no-repeat-headers / annexb / no-aud / no-hrd / info / hash=0 / no-temporal-layers / no-open-gop / min-keyint=1 / keyint=360 / bframes=8 / b-adapt=2 / b-pyramid / bframe-bias=0 / rc-lookahead=40 / lookahead-slices=4 / scenecut=40 / no-intra-refresh / ctu=32 / min-cu-size=8 / rect / no-amp / max-tu-size=16 / tu-inter-depth=2 / tu-intra-depth=2 / limit-tu=4 / rdoq-level=1 / dynamic-rd=0.00 / ssim-rd / signhide / no-tskip / nr-intra=0 / nr-inter=0 / no-constrained-intra / no-strong-intra-smoothing / max-merge=3 / limit-refs=2 / limit-modes / me=3 / subme=5 / merange=25 / temporal-mvp / weightp / weightb / no-analyze-src-pics / deblock=-1:-1 / no-sao / no-sao-non-deblock / rd=4 / no-early-skip / rskip / no-fast-intra / no-tskip-fast / no-cu-lossless / b-intra / rdpenalty=1 / psy-rd=0.00 / psy-rdoq=3.00 / no-rd-refine / analysis-reuse-mode=0 / no-lossless / cbqpoffs=-2 / crqpoffs=-2 / rc=crf / crf=21.0 / qcomp=0.70 / qpstep=4 / stats-write=0 / stats-read=0 / ipratio=1.40 / pbratio=1.30 / aq-mode=1 / aq-strength=0.70 / cutree / zone-count=0 / no-strict-cbr / qg-size=16 / no-rc-grain / qpmax=69 / qpmin=0 / no-const-vbv / sar=1 / overscan=0 / videoformat=5 / range=0 / colorprim=1 / transfer=2 / colormatrix=2 / chromaloc=0 / display-window=0 / max-cll=0,0 / min-luma=0 / max-luma=1023 / log2-max-poc-lsb=8 / vui-timing-info / vui-hrd-info / slices=1 / opt-qp-pps / opt-ref-list-length-pps / no-multi-pass-opt-rps / scenecut-bias=0.05 / no-opt-cu-delta-qp / no-aq-motion / no-hdr / no-hdr-opt / no-dhdr10-opt / analysis-reuse-level=5 / scale-factor=0 / refine-intra=0 / refine-inter=0 / refine-mv=0 / no-limit-sao / ctu-info=0

  33. Default : Yes

  34. Forced : No

  35. Color range : Limited

  36. Color primaries : BT.709


  37. Audio #1

  38. ID : 2

  39. Format : AC-3

  40. Format/Info : Audio Coding 3

  41. Commercial name : Dolby Digital

  42. Codec ID : A_AC3

  43. Duration : 1 h 27 min

  44. Bit rate mode : Constant

  45. Bit rate : 640 kb/s

  46. Channel(s) : 6 channels

  47. Channel layout : L R C LFE Ls Rs

  48. Sampling rate : 48.0 kHz

  49. Frame rate : 31.250 FPS (1536 SPF)

  50. Compression mode : Lossy

  51. Stream size : 402 MiB (8%)

  52. Title : 粤语

  53. Language : Chinese

  54. Service kind : Complete Main

  55. Default : Yes

  56. Forced : No


  57. Audio #2

  58. ID : 3

  59. Format : AC-3

  60. Format/Info : Audio Coding 3

  61. Commercial name : Dolby Digital

  62. Codec ID : A_AC3

  63. Duration : 1 h 27 min

  64. Bit rate mode : Constant

  65. Bit rate : 640 kb/s

  66. Channel(s) : 6 channels

  67. Channel layout : L R C LFE Ls Rs

  68. Sampling rate : 48.0 kHz

  69. Frame rate : 31.250 FPS (1536 SPF)

  70. Compression mode : Lossy

  71. Stream size : 402 MiB (8%)

  72. Title : 国语

  73. Language : Chinese

  74. Service kind : Complete Main

  75. Default : No

  76. Forced : No


  77. Text #1

  78. ID : 4

  79. Format : PGS

  80. Muxing mode : zlib

  81. Codec ID : S_HDMV/PGS

  82. Codec ID/Info : Picture based subtitle format used on BDs/HD-DVDs

  83. Duration : 1 h 23 min

  84. Bit rate : 13.8 kb/s

  85. Count of elements : 1261

  86. Stream size : 8.27 MiB (0%)

  87. Title : 繁体

  88. Language : Chinese

  89. Default : Yes

  90. Forced : No


  91. Text #2

  92. ID : 5

  93. Format : PGS

  94. Muxing mode : zlib

  95. Codec ID : S_HDMV/PGS

  96. Codec ID/Info : Picture based subtitle format used on BDs/HD-DVDs

  97. Duration : 1 h 23 min

  98. Bit rate : 12.6 kb/s

  99. Count of elements : 1261

  100. Stream size : 7.56 MiB (0%)

  101. Title : 简体

  102. Language : Chinese

  103. Default : No

  104. Forced : No


复制代码





文件下载


除非特别注明,本文『机动部队[国粤多音轨/简繁字幕].PTU.2003.BluRay.1080p.x265.10bit.2Audio-MiniHD 5.05GB』来源于互联网机器人自动抓取,非本站原创。 浮游电影网不对本文拥有版权,如有侵犯,请联系邮箱:fuyouu#yandex.com[#换成@]投诉。我们会在15个工作日内删除。 但烦请转载时请标明出处:“本文转载于『浮游电影网』,原文地址:https://www.fuyouu.com/22952.html

评论吧骚年!

发表你的见解   

昵称*

E-mail*(建议输入,以便收到博主回复的提示邮件)

验证码*

您可以使用eMule或eMule Mod(Windows)、aMule(Win、Linux、Mac)等软件下载eD2k链接。。
eMule收藏集(.emulecollection)文件是您选中的所有链接的列表文件。eMule可以直接下载它们。
按住SHIFT键选择可以选中多个选择框。
可用文件名和大小选择器来选择文件。
文件名选择器帮您根据文件名称或后缀来选择文件。不分大小写。
符号使用:
和:空格( )、+
不包含:-
或:|
转义:一对英文引号("");
匹配开头:^
匹配结尾:$
例如:
选中所有名称中包含有“eMule”或“0.49c”字眼,但不包含有“exe”字眼的:emule|0.49c -exe
选中所有名称的开头是“eMule”,结尾是“0.49c”的:^emule 0.49c$
选中所有名称中带有“eMule 0.49c”的(必须是“eMule 0.49c”,中间没有别的字符,不能是“eMule fake 0.49c”),需要转义:"emule 0.49c"
大小选择器帮您根据文件大小选择文件。