当前位置: 首页 >> 欧美电影 >> 月球陨落[简繁英字幕].Moonfall.2022.Bluray.1080p.x265.10bit.DDP7.1.REPACK-MiniHD 9.87GB >> 正文

月球陨落[简繁英字幕].Moonfall.2022.Bluray.1080p.x265.10bit.DDP7.1.REPACK-MiniHD 9.87GB

2022年12月30日 08:28:57     电影发布:来源于网络     电影分类:欧美电影     评论(0)    

◎标 题 月球陨落

◎译 名 月球坠落

◎片 名 Moonfall

◎年 代 2022

◎产 地 美国 / 中国大陆 / 英国

◎类 别 科幻 / 灾难

◎语 言 英语 / 汉语普通话

◎上映日期 2022-03-25(中国大陆) / 2022-02-04(美国)

◎IMDb评分 5.1/10 (79780人评价)

◎IMDb链接 https://www.imdb.com/title/tt5834426/

◎豆瓣评分 5.2/10 (107200人评价)

◎豆瓣链接 https://movie.douban.com/subject/26825482/

◎片 长 130分钟

◎导 演 罗兰·艾默里奇 Roland Emmerich

◎编 剧 罗兰·艾默里奇 Roland Emmerich

哈洛德·克卢瑟 Harald Kloser

斯宾塞·科恩 Spenser Cohen

◎演 员 哈莉·贝瑞 Halle Berry

帕特里克·威尔森 Patrick Wilson

约翰·布莱德利 John Bradley

于文文 Kelly Yu

迈克尔·佩纳 Michael Peña

唐纳德·萨瑟兰 Donald Sutherland

查理·普拉默 Charlie Plummer

艾米·伊库瓦克 Eme Ikwuakor

卡罗林纳·巴特察克 Carolina Bartczak

马克西姆·罗伊 Maxim Roy

斯蒂夫·博加尔特 Stephen Bogaert

蒂龙·本斯金 Tyrone Benskin

乔什·克鲁达斯 Josh Cruddas

凯蒂·布赖尔 Katy Breier

克里斯·桑迪福德 Chris Sandiford

兰迪·托马斯 Randy Thomas

克里什陶·马尔尚 Krista Marchand

泰勒·艾略特·伯克 Tyler Elliot Burke

娜塔莉·希波蒂 Nathaly Thibault

贾·史密斯-约翰逊 Jaa Smith-Johnson

史蒂文·皮奥维森 Steven Piovesan

大卫·泰勒 David Tyler

乔纳森·麦克斯韦尔·西尔弗 Jonathan Maxwell Silver

阿兹里尔·答曼 Azriel Dalman

罗兰·艾默里奇 Roland Emmerich

王中军 Zhongjun Wang

王中磊 Zhonglei Wang

马里奥·达维尼翁 Mario Davignon

费利克斯·安托万·杜瓦尔 Félix-Antoine Duval

◎简 介

月球开始偏离轨道,离撞上地球的时间线越来越近,危机时刻,美国国防部提出使用核弹,来让月球重新回到正常轨道。但“假冒博士”(约翰·布莱德利饰)发现,月球内部是空的,显然是有外星文明在操控着月球的轨迹。这个计划逐渐被两位宇航员(帕特里克·威尔森和哈莉·贝瑞饰)接受,但前者因为多年前的一起太空事故,已被美国国家航空航天局开除,关键时刻,已经升为负责人的后者拍板,决定用一台被废弃在博物馆中的航天飞船再次升空飞往月球,借助前者超强的驾驶经验,深入月球地心完成任务。

  1. ##### MediaInfo ######

  2. General

  3. Unique ID : 284868406815594245493984135824507299726 (0xD64FA8D44F8854F0A4F9B7188B32678E)

  4. Complete name : Moonfall.2022.Bluray.1080p.x265.10bit.DDP7.1.REPACK-MiniHD.mkv

  5. Format : Matroska

  6. Format version : Version 4

  7. File size : 9.87 GiB

  8. Duration : 2 h 10 min

  9. Overall bit rate : 10.8 Mb/s

  10. Movie name : Moonfall.2022.Bluray.1080p.x265.10bit.DDP7.1.REPACK.MNHD-FRDS

  11. Encoded date : UTC 2022-06-04 13:37:56

  12. Writing application : mkvmerge v66.0.0 ('Josie') 64-bit

  13. Writing library : libebml v1.4.2 + libmatroska v1.6.4

  14. Cover : Yes

  15. Attachments : cover.jpg


  16. Video

  17. ID : 1

  18. Format : HEVC

  19. Format/Info : High Efficiency Video Coding

  20. Format profile : Main [email protected]@High

  21. Codec ID : V_MPEGH/ISO/HEVC

  22. Duration : 2 h 10 min

  23. Bit rate : 9 221 kb/s

  24. Width : 1 920 pixels

  25. Height : 804 pixels

  26. Display aspect ratio : 2.40:1

  27. Frame rate mode : Constant

  28. Frame rate : 23.976 (24000/1001) FPS

  29. Color space : YUV

  30. Chroma subsampling : 4:2:0

  31. Bit depth : 10 bits

  32. Bits/(Pixel*Frame) : 0.249

  33. Stream size : 8.39 GiB (85%)

  34. Writing library : x265 3.5+29-3415705dd:[Windows][MSVC 1930][64 bit] 10bit

  35. Encoding settings : cpuid=1111039 / frame-threads=4 / numa-pools=16 / wpp / pmode / no-pme / no-psnr / no-ssim / log-level=2 / input-csp=1 / input-res=1920x804 / interlace=0 / total-frames=187441 / level-idc=0 / high-tier=1 / uhd-bd=0 / ref=6 / no-allow-non-conformance / no-repeat-headers / annexb / no-aud / no-eob / no-eos / no-hrd / info / hash=0 / no-temporal-layers / no-open-gop / min-keyint=1 / keyint=250 / gop-lookahead=0 / bframes=8 / b-adapt=2 / b-pyramid / bframe-bias=0 / rc-lookahead=100 / lookahead-slices=0 / scenecut=40 / no-hist-scenecut / radl=0 / no-splice / no-intra-refresh / ctu=32 / min-cu-size=8 / no-rect / no-amp / max-tu-size=32 / tu-inter-depth=4 / tu-intra-depth=4 / limit-tu=0 / rdoq-level=2 / dynamic-rd=0.00 / no-ssim-rd / signhide / tskip / nr-intra=0 / nr-inter=0 / no-constrained-intra / no-strong-intra-smoothing / max-merge=5 / limit-refs=0 / no-limit-modes / me=3 / subme=7 / merange=57 / temporal-mvp / no-frame-dup / no-hme / weightp / weightb / no-analyze-src-pics / deblock=-3:-3 / no-sao / no-sao-non-deblock / rd=4 / selective-sao=0 / no-early-skip / no-rskip / no-fast-intra / no-tskip-fast / no-cu-lossless / b-intra / no-splitrd-skip / rdpenalty=0 / psy-rd=1.50 / psy-rdoq=1.00 / no-rd-refine / no-lossless / cbqpoffs=-2 / crqpoffs=-2 / rc=crf / crf=18.0 / qcomp=0.65 / qpstep=4 / stats-write=0 / stats-read=0 / vbv-maxrate=160000 / vbv-bufsize=160000 / vbv-init=0.9 / min-vbv-fullness=50.0 / max-vbv-fullness=80.0 / crf-max=0.0 / crf-min=0.0 / ipratio=1.30 / pbratio=1.20 / aq-mode=1 / aq-strength=1.00 / no-cutree / zone-count=0 / no-strict-cbr / qg-size=8 / no-rc-grain / qpmax=69 / qpmin=0 / no-const-vbv / sar=0 / overscan=0 / videoformat=5 / range=0 / colorprim=1 / transfer=1 / colormatrix=1 / chromaloc=0 / display-window=0 / cll=0,0 / min-luma=0 / max-luma=1023 / log2-max-poc-lsb=8 / vui-timing-info / vui-hrd-info / slices=1 / no-opt-qp-pps / no-opt-ref-list-length-pps / no-multi-pass-opt-rps / scenecut-bias=0.05 / hist-threshold=0.03 / no-opt-cu-delta-qp / no-aq-motion / no-hdr10 / no-hdr10-opt / no-dhdr10-opt / no-idr-recovery-sei / analysis-reuse-level=0 / analysis-save-reuse-level=0 / analysis-load-reuse-level=0 / scale-factor=0 / refine-intra=0 / refine-inter=0 / refine-mv=1 / refine-ctu-distortion=0 / no-limit-sao / ctu-info=0 / no-lowpass-dct / refine-analysis-type=0 / copy-pic=1 / max-ausize-factor=1.0 / no-dynamic-refine / no-single-sei / no-hevc-aq / no-svt / no-field / qp-adaptation-range=1.00 / scenecut-aware-qp=0conformance-window-offsets / right=0 / bottom=0 / decoder-max-rate=0 / no-vbv-live-multi-pass

  36. Default : Yes

  37. Forced : No

  38. Color range : Limited

  39. Color primaries : BT.709

  40. Transfer characteristics : BT.709

  41. Matrix coefficients : BT.709


  42. Audio

  43. ID : 2

  44. Format : E-AC-3

  45. Format/Info : Enhanced AC-3

  46. Commercial name : Dolby Digital Plus

  47. Format profile : Blu-ray Disc

  48. Codec ID : A_EAC3

  49. Duration : 2 h 10 min

  50. Bit rate mode : Constant

  51. Bit rate : 1 536 kb/s

  52. Channel(s) : 8 channels

  53. Channel layout : L R C LFE Ls Rs Lb Rb

  54. Sampling rate : 48.0 kHz

  55. Frame rate : 31.250 FPS (1536 SPF)

  56. Compression mode : Lossy

  57. Stream size : 1.40 GiB (14%)

  58. Language : English

  59. Service kind : Complete Main

  60. Default : Yes

  61. Forced : No


  62. Text #1

  63. ID : 3

  64. Format : PGS

  65. Muxing mode : zlib

  66. Codec ID : S_HDMV/PGS

  67. Codec ID/Info : Picture based subtitle format used on BDs/HD-DVDs

  68. Duration : 2 h 0 min

  69. Bit rate : 30.4 kb/s

  70. Count of elements : 2520

  71. Stream size : 26.3 MiB (0%)

  72. Title : CHS

  73. Language : Chinese

  74. Default : No

  75. Forced : No


  76. Text #2

  77. ID : 4

  78. Format : PGS

  79. Muxing mode : zlib

  80. Codec ID : S_HDMV/PGS

  81. Codec ID/Info : Picture based subtitle format used on BDs/HD-DVDs

  82. Duration : 2 h 0 min

  83. Bit rate : 48.1 kb/s

  84. Count of elements : 2520

  85. Stream size : 41.6 MiB (0%)

  86. Title : CHS&ENG

  87. Language : Chinese

  88. Default : Yes

  89. Forced : No


  90. Text #3

  91. ID : 5

  92. Format : PGS

  93. Muxing mode : zlib

  94. Codec ID : S_HDMV/PGS

  95. Codec ID/Info : Picture based subtitle format used on BDs/HD-DVDs

  96. Duration : 2 h 0 min

  97. Bit rate : 31.2 kb/s

  98. Count of elements : 2520

  99. Stream size : 27.0 MiB (0%)

  100. Title : CHT

  101. Language : Chinese

  102. Default : No

  103. Forced : No


  104. Text #4

  105. ID : 6

  106. Format : PGS

  107. Muxing mode : zlib

  108. Codec ID : S_HDMV/PGS

  109. Codec ID/Info : Picture based subtitle format used on BDs/HD-DVDs

  110. Duration : 2 h 0 min

  111. Bit rate : 48.8 kb/s

  112. Count of elements : 2520

  113. Stream size : 42.2 MiB (0%)

  114. Title : CHT&ENG

  115. Language : Chinese

  116. Default : No

  117. Forced : No


  118. Text #5

  119. ID : 7

  120. ID in the original source medium : 4608 (0x1200)

  121. Format : PGS

  122. Muxing mode : zlib

  123. Codec ID : S_HDMV/PGS

  124. Codec ID/Info : Picture based subtitle format used on BDs/HD-DVDs

  125. Duration : 2 h 0 min

  126. Bit rate : 42.1 kb/s

  127. Count of elements : 4052

  128. Stream size : 36.4 MiB (0%)

  129. Title : ENG

  130. Language : English

  131. Default : No

  132. Forced : No

  133. Original source medium : Blu-ray


  134. Menu

  135. 00:00:00.000 : en:Chapter 01

  136. 00:05:58.274 : en:Chapter 02

  137. 00:13:28.057 : en:Chapter 03

  138. 00:21:14.564 : en:Chapter 04

  139. 00:30:58.940 : en:Chapter 05

  140. 00:38:36.856 : en:Chapter 06

  141. 00:47:33.725 : en:Chapter 07

  142. 00:55:51.848 : en:Chapter 08

  143. 01:03:39.816 : en:Chapter 09

  144. 01:10:14.710 : en:Chapter 10

  145. 01:15:38.534 : en:Chapter 11

  146. 01:22:37.369 : en:Chapter 12

  147. 01:30:10.780 : en:Chapter 13

  148. 01:35:47.783 : en:Chapter 14

  149. 01:45:09.177 : en:Chapter 15

  150. 01:56:22.976 : en:Chapter 16




文件下载


除非特别注明,本文『月球陨落[简繁英字幕].Moonfall.2022.Bluray.1080p.x265.10bit.DDP7.1.REPACK-MiniHD 9.87GB』来源于互联网机器人自动抓取,非本站原创。 浮游电影网不对本文拥有版权,如有侵犯,请联系邮箱:fuyouu#yandex.com[#换成@]投诉。我们会在15个工作日内删除。 但烦请转载时请标明出处:“本文转载于『浮游电影网』,原文地址:https://www.fuyouu.com/22951.html

评论吧骚年!

发表你的见解   

昵称*

E-mail*(建议输入,以便收到博主回复的提示邮件)

验证码*

您可以使用eMule或eMule Mod(Windows)、aMule(Win、Linux、Mac)等软件下载eD2k链接。。
eMule收藏集(.emulecollection)文件是您选中的所有链接的列表文件。eMule可以直接下载它们。
按住SHIFT键选择可以选中多个选择框。
可用文件名和大小选择器来选择文件。
文件名选择器帮您根据文件名称或后缀来选择文件。不分大小写。
符号使用:
和:空格( )、+
不包含:-
或:|
转义:一对英文引号("");
匹配开头:^
匹配结尾:$
例如:
选中所有名称中包含有“eMule”或“0.49c”字眼,但不包含有“exe”字眼的:emule|0.49c -exe
选中所有名称的开头是“eMule”,结尾是“0.49c”的:^emule 0.49c$
选中所有名称中带有“eMule 0.49c”的(必须是“eMule 0.49c”,中间没有别的字符,不能是“eMule fake 0.49c”),需要转义:"emule 0.49c"
大小选择器帮您根据文件大小选择文件。