当前位置: 首页 >> 国产电影 >> 白龙马之逆天之龙[国语配音/中文字幕].Bai.Long.Ma.Zhi.Ni.Tian.Zhi.Long.2022.1080p.WEB-DL.H264.AAC-MOMOWEB 1.47GB >> 正文

白龙马之逆天之龙[国语配音/中文字幕].Bai.Long.Ma.Zhi.Ni.Tian.Zhi.Long.2022.1080p.WEB-DL.H264.AAC-MOMOWEB 1.47GB

2022年12月28日 20:35:29     电影发布:来源于网络     电影分类:国产电影     评论(0)    

◎标 题 白龙马之逆天之龙

◎年 代 2022

◎产 地 中国大陆

◎类 别 动作 / 奇幻

◎语 言 汉语普通话

◎上映日期 2022-12-28(中国大陆)

◎IMDb链接 https://www.imdb.com/title//

◎豆瓣链接 https://movie.douban.com/subject/34841982/

◎片 长 93分钟

◎编 剧 许珂 Ke Xu

◎演 员 朱戬 Jian Zhu

付煣煊 Rouxuan Fu

◎简 介

五百年前的蟠桃大会上,天庭御厨的一道“龙肝凤髓”让西王母食指大动;四海龙族生存地位一落千大。五百年来,天下龙族人人自危,西海龙王的三太子敖烈生来桀骜不驯,在一次打斗中毁掉了天庭御赐西海的明珠,这反而要遭到天庭十万天兵天将的合力绞杀。为了摆脱命运的桎梏、为了重振整个龙族的未来,敖烈化为白马,走上了一条更加艰险的西行之路... ...

  1. ##### MediaInfo ######

  2. General

  3. Complete name : Bai.Long.Ma.Zhi.Ni.Tian.Zhi.Long.2022.1080p.WEB-DL.H264.AAC-MOMOWEB.mp4

  4. Format : MPEG-4

  5. Format profile : Base Media

  6. Codec ID : isom (isom/iso2/avc1/mp41)

  7. File size : 1.47 GiB

  8. Duration : 1 h 33 min

  9. Overall bit rate mode : Variable

  10. Overall bit rate : 2 256 kb/s

  11. Writing application : Lavf58.35.100


  12. Video

  13. ID : 1

  14. Format : AVC

  15. Format/Info : Advanced Video Codec

  16. Format profile : [email protected]

  17. Format settings : CABAC / 3 Ref Frames

  18. Format settings, CABAC : Yes

  19. Format settings, Reference frames : 3 frames

  20. Codec ID : avc1

  21. Codec ID/Info : Advanced Video Coding

  22. Duration : 1 h 33 min

  23. Bit rate : 2 060 kb/s

  24. Width : 1 920 pixels

  25. Height : 808 pixels

  26. Display aspect ratio : 2.40:1

  27. Frame rate mode : Constant

  28. Frame rate : 25.000 FPS

  29. Color space : YUV

  30. Chroma subsampling : 4:2:0

  31. Bit depth : 8 bits

  32. Scan type : Progressive

  33. Bits/(Pixel*Frame) : 0.053

  34. Stream size : 1.34 GiB (91%)

  35. Color range : Limited

  36. Color primaries : BT.709

  37. Transfer characteristics : BT.709

  38. Matrix coefficients : BT.709

  39. Codec configuration box : avcC


  40. Audio

  41. ID : 2

  42. Format : AAC LC

  43. Format/Info : Advanced Audio Codec Low Complexity

  44. Codec ID : mp4a-40-2

  45. Duration : 1 h 33 min

  46. Bit rate mode : Variable

  47. Bit rate : 192 kb/s

  48. Channel(s) : 2 channels

  49. Channel layout : L R

  50. Sampling rate : 44.1 kHz

  51. Frame rate : 43.066 FPS (1024 SPF)

  52. Compression mode : Lossy

  53. Stream size : 127 MiB (8%)

  54. Default : Yes

  55. Alternate group : 1


复制代码




文件下载


除非特别注明,本文『白龙马之逆天之龙[国语配音/中文字幕].Bai.Long.Ma.Zhi.Ni.Tian.Zhi.Long.2022.1080p.WEB-DL.H264.AAC-MOMOWEB 1.47GB』来源于互联网机器人自动抓取,非本站原创。 浮游电影网不对本文拥有版权,如有侵犯,请联系邮箱:fuyouu#yandex.com[#换成@]投诉。我们会在15个工作日内删除。 但烦请转载时请标明出处:“本文转载于『浮游电影网』,原文地址:https://www.fuyouu.com/22950.html

评论吧骚年!

发表你的见解   

昵称*

E-mail*(建议输入,以便收到博主回复的提示邮件)

验证码*

您可以使用eMule或eMule Mod(Windows)、aMule(Win、Linux、Mac)等软件下载eD2k链接。。
eMule收藏集(.emulecollection)文件是您选中的所有链接的列表文件。eMule可以直接下载它们。
按住SHIFT键选择可以选中多个选择框。
可用文件名和大小选择器来选择文件。
文件名选择器帮您根据文件名称或后缀来选择文件。不分大小写。
符号使用:
和:空格( )、+
不包含:-
或:|
转义:一对英文引号("");
匹配开头:^
匹配结尾:$
例如:
选中所有名称中包含有“eMule”或“0.49c”字眼,但不包含有“exe”字眼的:emule|0.49c -exe
选中所有名称的开头是“eMule”,结尾是“0.49c”的:^emule 0.49c$
选中所有名称中带有“eMule 0.49c”的(必须是“eMule 0.49c”,中间没有别的字符,不能是“eMule fake 0.49c”),需要转义:"emule 0.49c"
大小选择器帮您根据文件大小选择文件。