当前位置: 首页 >> 欧美电影 >> X[中英字幕].X.2022.BluRay.1080p.DTS-HDMA5.1.x265.10bit-DreamHD 5.31GB >> 正文

X[中英字幕].X.2022.BluRay.1080p.DTS-HDMA5.1.x265.10bit-DreamHD 5.31GB

2022年12月26日 17:36:50     电影发布:来源于网络     电影分类:欧美电影     评论(0)    

◎标 题 X

◎译 名 恐怖X档案(台)

◎年 代 2022

◎产 地 美国 / 加拿大

◎类 别 恐怖

◎语 言 英语

◎上映日期 2022-03-13(西南偏南电影节) / 2022-03-18(美国)

◎IMDb评分 6.6/10 (95695人评价)

◎IMDb链接 https://www.imdb.com/title/tt13560574/

◎豆瓣评分 6.0/10 (31687人评价)

◎豆瓣链接 https://movie.douban.com/subject/35240920/

◎片 长 105分钟

◎导 演 缇·威斯特 Ti West

◎编 剧 缇·威斯特 Ti West

◎演 员 米娅·高斯 Mia Goth

珍娜·奥尔特加 Jenna Ortega

布兰特妮·斯诺 Brittany Snow

卡迪小子 Kid Cudi

马丁·亨德森 Martin Henderson

欧文·坎贝尔 Owen Campbell

史蒂芬·乌瑞 Stephen Ure

詹姆斯·盖林 James Gaylyn

西蒙·普拉斯特 Simon Prast

吉奥夫·多兰 Geoff Dolan

马修·塞维尔 Matthew Saville

布莱恩妮·斯基林顿 Bryony Skillington

泰勒·贝茨 Tyler Bates

切尔西·沃尔夫 Chelsea Wolfe

艾略特·罗基特 Eliot Rockett

缇·威斯特 Ti West

Malgosia Turzanska

◎简 介

麦克西恩(米娅·高斯 Mia Goth 饰)是一个做梦都想要出名的女孩,可现实是,她沉浸于毒品带来的幻觉和快感之中,并且即将出演一部由她的男友(马丁·亨德森 Martin Henderson 饰)指导的色情片。为了拍摄,麦克西恩和男友、摄影RJ(欧文·坎贝尔 Owen Campbell 饰)、场务洛林(珍娜·奥尔特加 Jenna Ortega 饰),以及另外的一对主演杰克森(卡迪小子 Kid Cudi 饰)、波比(布兰特妮·斯诺 Brittany Snow 饰)驱车来到了一幢地处偏远的宅子处。

宅子的所有者是名叫霍华德(史蒂芬·乌瑞 Stephen Ure 饰)的老人,他对于这帮年轻人的到来似乎并不欢迎。尽管如此,影片还是按照计划开拍了,在此过程中,年轻的肉体和浓烈的荷尔蒙似乎唤醒了深藏在霍华德妻子体内的某种欲望。

  1. ##### MediaInfo ######

  2. General

  3. Unique ID : 81598818132991456432885895598302241382 (0x3D635C589902F998C402CC2FC1A32266)

  4. Complete name : X.2022.BluRay.1080p.DTS-HDMA5.1.x265.10bit-DreamHD.mkv

  5. Format : Matroska

  6. Format version : Version 4

  7. File size : 5.31 GiB

  8. Duration : 1 h 46 min

  9. Overall bit rate mode : Variable

  10. Overall bit rate : 7 148 kb/s

  11. Encoded date : UTC 2022-05-21 09:14:31

  12. Writing application : mkvmerge v62.0.0 ('Apollo') 64-bit

  13. Writing library : libebml v1.4.2 + libmatroska v1.6.4


  14. Video

  15. ID : 1

  16. Format : HEVC

  17. Format/Info : High Efficiency Video Coding

  18. Format profile : Main [email protected]@Main

  19. Codec ID : V_MPEGH/ISO/HEVC

  20. Duration : 1 h 23 min

  21. Bit rate : 5 209 kb/s

  22. Width : 1 920 pixels

  23. Height : 1 012 pixels

  24. Display aspect ratio : 1.897

  25. Frame rate mode : Constant

  26. Frame rate : 23.976 (23976/1000) FPS

  27. Color space : YUV

  28. Chroma subsampling : 4:2:0

  29. Bit depth : 10 bits

  30. Bits/(Pixel*Frame) : 0.112

  31. Stream size : 3.04 GiB (57%)

  32. Writing library : x265 3.5+10-82786fccc:[Windows][MSVC 1929][64 bit] 10bit

  33. Encoding settings : cpuid=1111039 / frame-threads=5 / numa-pools=36,36 / wpp / no-pmode / no-pme / no-psnr / no-ssim / log-level=2 / input-csp=1 / input-res=1920x1012 / interlace=0 / total-frames=0 / level-idc=0 / high-tier=1 / uhd-bd=0 / ref=6 / no-allow-non-conformance / repeat-headers / annexb / no-aud / no-eob / no-eos / no-hrd / info / hash=0 / no-temporal-layers / no-open-gop / min-keyint=23 / keyint=250 / gop-lookahead=0 / bframes=8 / b-adapt=2 / b-pyramid / bframe-bias=0 / rc-lookahead=24 / lookahead-slices=6 / scenecut=40 / hist-scenecut=0 / radl=0 / no-splice / no-intra-refresh / ctu=64 / min-cu-size=8 / no-rect / no-amp / max-tu-size=32 / tu-inter-depth=1 / tu-intra-depth=1 / limit-tu=0 / rdoq-level=0 / dynamic-rd=0.00 / no-ssim-rd / signhide / no-tskip / nr-intra=0 / nr-inter=0 / no-constrained-intra / no-strong-intra-smoothing / max-merge=3 / limit-refs=1 / no-limit-modes / me=2 / subme=7 / merange=48 / temporal-mvp / no-frame-dup / no-hme / weightp / weightb / no-analyze-src-pics / deblock=0:0 / sao / no-sao-non-deblock / rd=4 / selective-sao=4 / early-skip / rskip / no-fast-intra / no-tskip-fast / no-cu-lossless / b-intra / no-splitrd-skip / rdpenalty=0 / psy-rd=2.00 / psy-rdoq=0.00 / no-rd-refine / no-lossless / cbqpoffs=0 / crqpoffs=0 / rc=crf / crf=16.0 / qcomp=0.60 / qpstep=4 / stats-write=0 / stats-read=0 / ipratio=1.40 / pbratio=1.30 / aq-mode=3 / aq-strength=1.00 / cutree / zone-count=0 / no-strict-cbr / qg-size=32 / no-rc-grain / qpmax=69 / qpmin=0 / no-const-vbv / sar=0 / overscan=0 / videoformat=5 / range=0 / colorprim=2 / transfer=2 / colormatrix=2 / chromaloc=0 / display-window=0 / cll=0,0 / min-luma=0 / max-luma=1023 / log2-max-poc-lsb=8 / vui-timing-info / vui-hrd-info / slices=1 / no-opt-qp-pps / no-opt-ref-list-length-pps / no-multi-pass-opt-rps / scenecut-bias=0.05 / hist-threshold=0.03 / no-opt-cu-delta-qp / aq-motion / no-hdr10 / no-hdr10-opt / no-dhdr10-opt / no-idr-recovery-sei / analysis-reuse-level=0 / analysis-save-reuse-level=0 / analysis-load-reuse-level=0 / scale-factor=0 / refine-intra=0 / refine-inter=0 / refine-mv=1 / refine-ctu-distortion=0 / no-limit-sao / ctu-info=0 / no-lowpass-dct / refine-analysis-type=0 / copy-pic=1 / max-ausize-factor=1.0 / no-dynamic-refine / no-single-sei / no-hevc-aq / no-svt / no-field / qp-adaptation-range=1.00 / scenecut-aware-qp=0conformance-window-offsets / right=0 / bottom=0 / decoder-max-rate=0 / no-vbv-live-multi-pass

  34. Default : Yes

  35. Forced : No


  36. Audio

  37. ID : 2

  38. Format : DTS XLL

  39. Format/Info : Digital Theater Systems

  40. Commercial name : DTS-HD Master Audio

  41. Codec ID : A_DTS

  42. Duration : 1 h 46 min

  43. Bit rate mode : Variable

  44. Bit rate : 2 982 kb/s

  45. Channel(s) : 6 channels

  46. Channel layout : C L R Ls Rs LFE

  47. Sampling rate : 48.0 kHz

  48. Frame rate : 93.750 FPS (512 SPF)

  49. Bit depth : 24 bits

  50. Compression mode : Lossless

  51. Stream size : 2.21 GiB (42%)

  52. Default : Yes

  53. Forced : No


  54. Text #1

  55. ID : 3

  56. Format : PGS

  57. Muxing mode : zlib

  58. Codec ID : S_HDMV/PGS

  59. Codec ID/Info : Picture based subtitle format used on BDs/HD-DVDs

  60. Duration : 1 h 38 min

  61. Bit rate : 22.5 kb/s

  62. Count of elements : 1457

  63. Stream size : 15.9 MiB (0%)

  64. Language : Chinese

  65. Default : Yes

  66. Forced : No


  67. Text #2

  68. ID : 4

  69. Format : PGS

  70. Muxing mode : zlib

  71. Codec ID : S_HDMV/PGS

  72. Codec ID/Info : Picture based subtitle format used on BDs/HD-DVDs

  73. Duration : 1 h 38 min

  74. Bit rate : 22.2 kb/s

  75. Count of elements : 1457

  76. Stream size : 15.7 MiB (0%)

  77. Language : Chinese

  78. Default : Yes

  79. Forced : No


  80. Text #3

  81. ID : 5

  82. Format : PGS

  83. Muxing mode : zlib

  84. Codec ID : S_HDMV/PGS

  85. Codec ID/Info : Picture based subtitle format used on BDs/HD-DVDs

  86. Duration : 1 h 38 min

  87. Bit rate : 42.6 kb/s

  88. Count of elements : 1457

  89. Stream size : 30.2 MiB (1%)

  90. Language : Chinese

  91. Default : Yes

  92. Forced : No


  93. Text #4

  94. ID : 6

  95. Format : PGS

  96. Muxing mode : zlib

  97. Codec ID : S_HDMV/PGS

  98. Codec ID/Info : Picture based subtitle format used on BDs/HD-DVDs

  99. Duration : 1 h 38 min

  100. Bit rate : 42.4 kb/s

  101. Count of elements : 1457

  102. Stream size : 30.0 MiB (1%)

  103. Language : Chinese

  104. Default : Yes

  105. Forced : No


  106. Text #5

  107. ID : 7

  108. Format : PGS

  109. Muxing mode : zlib

  110. Codec ID : S_HDMV/PGS

  111. Codec ID/Info : Picture based subtitle format used on BDs/HD-DVDs

  112. Duration : 1 h 43 min

  113. Bit rate : 25.2 kb/s

  114. Count of elements : 2026

  115. Stream size : 18.7 MiB (0%)

  116. Language : English

  117. Default : Yes

  118. Forced : No


  119. Menu

  120. 00:00:00.000 : en:第 01 章

  121. 00:04:41.448 : en:第 02 章

  122. 00:12:51.646 : en:第 03 章

  123. 00:22:53.330 : en:第 04 章

  124. 00:28:03.140 : en:第 05 章

  125. 00:34:36.324 : en:第 06 章

  126. 00:41:08.299 : en:第 07 章

  127. 00:44:42.013 : en:第 08 章

  128. 00:52:38.989 : en:第 09 章

  129. 00:56:59.541 : en:第 10 章

  130. 01:02:38.296 : en:第 11 章

  131. 01:08:46.414 : en:第 12 章

  132. 01:15:00.538 : en:第 13 章

  133. 01:22:18.892 : en:第 14 章

  134. 01:32:12.861 : en:第 15 章

  135. 01:38:23.022 : en:第 16 章


复制代码




文件下载



除非特别注明,本文『X[中英字幕].X.2022.BluRay.1080p.DTS-HDMA5.1.x265.10bit-DreamHD 5.31GB』来源于互联网机器人自动抓取,非本站原创。 浮游电影网不对本文拥有版权,如有侵犯,请联系邮箱:fuyouu#yandex.com[#换成@]投诉。我们会在15个工作日内删除。 但烦请转载时请标明出处:“本文转载于『浮游电影网』,原文地址:https://www.fuyouu.com/22948.html

评论吧骚年!

发表你的见解   

昵称*

E-mail*(建议输入,以便收到博主回复的提示邮件)

验证码*

您可以使用eMule或eMule Mod(Windows)、aMule(Win、Linux、Mac)等软件下载eD2k链接。。
eMule收藏集(.emulecollection)文件是您选中的所有链接的列表文件。eMule可以直接下载它们。
按住SHIFT键选择可以选中多个选择框。
可用文件名和大小选择器来选择文件。
文件名选择器帮您根据文件名称或后缀来选择文件。不分大小写。
符号使用:
和:空格( )、+
不包含:-
或:|
转义:一对英文引号("");
匹配开头:^
匹配结尾:$
例如:
选中所有名称中包含有“eMule”或“0.49c”字眼,但不包含有“exe”字眼的:emule|0.49c -exe
选中所有名称的开头是“eMule”,结尾是“0.49c”的:^emule 0.49c$
选中所有名称中带有“eMule 0.49c”的(必须是“eMule 0.49c”,中间没有别的字符,不能是“eMule fake 0.49c”),需要转义:"emule 0.49c"
大小选择器帮您根据文件大小选择文件。