当前位置: 首页 >> 欧美电影 >> 控方证人[中文字幕].Witness.for.the.Prosecution.1957.BluRay.1080p.DTS-HD.MA.2.0.x265.10bit-DreamHD 5.91GB >> 正文

控方证人[中文字幕].Witness.for.the.Prosecution.1957.BluRay.1080p.DTS-HD.MA.2.0.x265.10bit-DreamHD 5.91GB

2022年12月26日 17:36:15     电影发布:来源于网络     电影分类:欧美电影     评论(0)    

◎标 题 控方证人

◎译 名 雄才伟略 / 情妇

◎片 名 Witness for the Prosecution

◎年 代 1957

◎产 地 美国

◎类 别 剧情 / 悬疑 / 犯罪

◎语 言 英语 / 德语

◎上映日期 1957-12-17(美国)

◎IMDb评分 8.4/10 (126399人评价)

◎IMDb链接 https://www.imdb.com/title/tt0051201/

◎豆瓣评分 9.6/10 (510925人评价)

◎豆瓣链接 https://movie.douban.com/subject/1296141/

◎片 长 116分钟

◎导 演 比利·怀尔德 Billy Wilder

◎编 剧 阿加莎·克里斯蒂 Agatha Christie

比利·怀尔德 Billy Wilder

哈里·库尼兹 Harry Kurnitz

◎演 员 泰隆·鲍华 Tyrone Power

玛琳·黛德丽 Marlene Dietrich

查尔斯·劳顿 Charles Laughton

埃尔莎·兰彻斯特 Elsa Lanchester

约翰·威廉姆斯 John Williams

亨利·丹尼尔 Henry Daniell

伊安·沃尔夫 Ian Wolfe

托林·撒切尔 Torin Thatcher

诺玛·威登 Norma Varden

尤娜·奥康纳 Una O'Connor

茹塔·李 Ruta Lee

贝丝·弗劳尔斯 Bess Flowers

比尔·厄尔文 Bill Erwin

J·帕特·奥马利 J. Pat O'Malley

本·怀特 Ben Wright

Paul Kruger Paul Kruger

Jack Raine Jack Raine

Paul Power Paul Power

乔治·佩林 George Pelling

威廉·H·奥布莱恩 William H. O'Brien

奥托拉内史密斯 Ottola Nesmith

Frank McClure Frank McClure

Colin Kenny Colin Kenny

Jeanne Lafayette Jeanne Lafayette

Wilbur Mack Wilbur Mack

Fred Rapport Fred Rapport

利奥达·理查德斯 Leoda Richards

Glen Walters Glen Walters

Arthur Tovey Arthur Tovey

伯特史蒂文斯 Bert Stevens

Cap Somers Cap Somers

Lucille Sewall Lucille Sewall

斯考特西顿 Scott Seaton

Norbert Schiller Norbert Schiller

杰弗里·塞尔 Jeffrey Sayre

John Roy John Roy

Al Roberts Al Roberts

Art Howard Art Howard

Stuart Hall Stuart Hall

Francis Compton Francis Compton

Philip Tonge Philip Tonge

帕特里克·艾亨 Patrick Aherne

富兰克林·法纳姆 Franklyn Farnum

玛乔丽·伊顿 Marjorie Eaton

史蒂夫·卡鲁瑟斯 Steve Carruthers

George Calliga George Calliga

乔治布鲁格曼 George Bruggeman

丹尼·鲍沙其 Danny Borzage

Brandon Beach Brandon Beach

埃迪·贝克 Eddie Baker

沃尔特·培根 Walter Bacon

小阿瑟·霍恩布洛 Arthur Hornblow Jr.

Matty Malneck Matty Malneck

◎简 介

伦敦著名刑案辩护律师韦菲爵士(查尔斯•劳顿 Charles Laughton 饰)接受了心脏病治疗,但是身体依旧虚弱,第一天回家休养,护士一直严厉监督他服药,并杜绝烟酒。管家为了便于上楼,还专门为他修了电梯。但是,种种关心照顾,对于这位桀骜不驯、牙尖嘴利的大律师根本不起作用,反倒是一纸诉状令他倍感兴奋。律师梅休和当事人沃尔(泰隆•鲍华 Tyrone Power饰)登门拜访,请他出山打官司。原来,沃尔结识了富婆,两人相见甚欢,虽然仆人对他发明的打蛋器充满鄙夷,但是富婆却对他充满爱意,甚至为他修改了遗嘱,把8万英镑留给了他。然而,富婆却惨遭毒手。于是,沃尔成为警方的头号嫌疑犯。他的唯一证人是妻子克里斯汀(玛琳•黛德丽 Marlene Dietrich饰),然而后者登门时的冷漠与淡定,令韦菲爵士怀疑这其中另有隐情。在扑朔迷离的案件背后,隐藏着一个个环环相扣...

  1. ##### MediaInfo ######

  2. General

  3. Unique ID : 247075215324759924856647344567010719528 (0xB9E0F4A04CDE20101521C9132AD3F728)

  4. Complete name : Witness.for.the.Prosecution.1957.BluRay.1080p.DTS-HD.MA.2.0.x265.10bit-DreamHD.mkv

  5. Format : Matroska

  6. Format version : Version 4

  7. File size : 5.91 GiB

  8. Duration : 1 h 56 min

  9. Overall bit rate mode : Variable

  10. Overall bit rate : 7 264 kb/s

  11. Encoded date : UTC 2022-03-31 05:44:24

  12. Writing application : mkvmerge v66.0.0 ('Josie') 64-bit

  13. Writing library : libebml v1.4.2 + libmatroska v1.6.4


  14. Video

  15. ID : 1

  16. Format : HEVC

  17. Format/Info : High Efficiency Video Coding

  18. Format profile : Main [email protected]@Main

  19. Codec ID : V_MPEGH/ISO/HEVC

  20. Duration : 1 h 56 min

  21. Bit rate : 5 475 kb/s

  22. Width : 1 796 pixels

  23. Height : 1 080 pixels

  24. Display aspect ratio : 5:3

  25. Frame rate mode : Constant

  26. Frame rate : 23.976 (23976/1000) FPS

  27. Color space : YUV

  28. Chroma subsampling : 4:2:0

  29. Bit depth : 10 bits

  30. Bits/(Pixel*Frame) : 0.118

  31. Stream size : 4.46 GiB (75%)

  32. Writing library : x265 2.7+15-b9f5b5d7bf95:[Windows][MSVC 1800][64 bit] 10bit

  33. Encoding settings : cpuid=1173503 / frame-threads=4 / numa-pools=20 / wpp / no-pmode / no-pme / no-psnr / no-ssim / log-level=2 / input-csp=1 / input-res=1796x1080 / interlace=0 / total-frames=0 / level-idc=0 / high-tier=1 / uhd-bd=0 / ref=6 / no-allow-non-conformance / repeat-headers / annexb / no-aud / no-hrd / info / hash=0 / no-temporal-layers / no-open-gop / min-keyint=23 / keyint=250 / gop-lookahead=0 / bframes=8 / b-adapt=2 / b-pyramid / bframe-bias=0 / rc-lookahead=24 / lookahead-slices=6 / scenecut=40 / radl=0 / no-intra-refresh / ctu=64 / min-cu-size=8 / no-rect / no-amp / max-tu-size=32 / tu-inter-depth=1 / tu-intra-depth=1 / limit-tu=0 / rdoq-level=0 / dynamic-rd=0.00 / no-ssim-rd / signhide / no-tskip / nr-intra=0 / nr-inter=0 / no-constrained-intra / no-strong-intra-smoothing / max-merge=2 / limit-refs=3 / no-limit-modes / me=2 / subme=7 / merange=48 / temporal-mvp / weightp / weightb / no-analyze-src-pics / deblock=0:0 / sao / no-sao-non-deblock / rd=4 / no-early-skip / rskip / no-fast-intra / no-tskip-fast / no-cu-lossless / no-b-intra / no-splitrd-skip / rdpenalty=0 / psy-rd=2.00 / psy-rdoq=0.00 / no-rd-refine / no-lossless / cbqpoffs=0 / crqpoffs=0 / rc=crf / crf=20.0 / qcomp=0.60 / qpstep=4 / stats-write=0 / stats-read=0 / ipratio=1.40 / pbratio=1.30 / aq-mode=3 / aq-strength=1.00 / cutree / zone-count=0 / no-strict-cbr / qg-size=32 / no-rc-grain / qpmax=69 / qpmin=0 / no-const-vbv / sar=0 / overscan=0 / videoformat=5 / range=0 / colorprim=2 / transfer=2 / colormatrix=2 / chromaloc=0 / display-window=0 / max-cll=0,0 / min-luma=0 / max-luma=1023 / log2-max-poc-lsb=8 / vui-timing-info / vui-hrd-info / slices=1 / no-opt-qp-pps / no-opt-ref-list-length-pps / no-multi-pass-opt-rps / scenecut-bias=0.05 / no-opt-cu-delta-qp / aq-motion / no-hdr / no-hdr-opt / no-dhdr10-opt / no-idr-recovery-sei / analysis-reuse-level=5 / scale-factor=0 / refine-intra=0 / refine-inter=0 / refine-mv=0 / no-limit-sao / ctu-info=0 / no-lowpass-dct / refine-mv-type=0 / copy-pic=1 / max-ausize-factor=1.0 / no-dynamic-refine

  34. Default : Yes

  35. Forced : No


  36. Audio

  37. ID : 2

  38. Format : DTS XLL

  39. Format/Info : Digital Theater Systems

  40. Commercial name : DTS-HD Master Audio

  41. Codec ID : A_DTS

  42. Duration : 1 h 56 min

  43. Bit rate mode : Variable

  44. Bit rate : 1 668 kb/s

  45. Channel(s) : 2 channels

  46. Channel layout : L R

  47. Sampling rate : 48.0 kHz

  48. Frame rate : 93.750 FPS (512 SPF)

  49. Bit depth : 16 bits

  50. Compression mode : Lossless

  51. Stream size : 1.36 GiB (23%)

  52. Language : English

  53. Default : Yes

  54. Forced : No


  55. Text #1

  56. ID : 3

  57. Format : PGS

  58. Muxing mode : zlib

  59. Codec ID : S_HDMV/PGS

  60. Codec ID/Info : Picture based subtitle format used on BDs/HD-DVDs

  61. Duration : 1 h 55 min

  62. Bit rate : 53.2 kb/s

  63. Count of elements : 3218

  64. Stream size : 44.1 MiB (1%)

  65. Title : CHS

  66. Language : Chinese

  67. Default : Yes

  68. Forced : No


  69. Text #2

  70. ID : 4

  71. Format : PGS

  72. Muxing mode : zlib

  73. Codec ID : S_HDMV/PGS

  74. Codec ID/Info : Picture based subtitle format used on BDs/HD-DVDs

  75. Duration : 1 h 55 min

  76. Bit rate : 85.9 kb/s

  77. Count of elements : 3218

  78. Stream size : 71.2 MiB (1%)

  79. Title : CHS&ENG

  80. Language : Chinese

  81. Default : Yes

  82. Forced : No


  83. Text #3

  84. ID : 5

  85. Format : PGS

  86. Muxing mode : zlib

  87. Codec ID : S_HDMV/PGS

  88. Codec ID/Info : Picture based subtitle format used on BDs/HD-DVDs

  89. Duration : 1 h 55 min

  90. Bit rate : 57.5 kb/s

  91. Count of elements : 3218

  92. Stream size : 47.7 MiB (1%)

  93. Title : CHT

  94. Language : Chinese

  95. Default : Yes

  96. Forced : No


  97. Menu

  98. 00:00:00.000 : en:第 01 章

  99. 00:22:58.294 : en:第 02 章

  100. 00:38:57.710 : en:第 03 章

  101. 00:50:42.289 : en:第 04 章

  102. 01:11:25.072 : en:第 05 章

  103. 01:28:24.382 : en:第 06 章

  104. 01:35:55.208 : en:第 07 章

  105. 01:47:19.808 : en:第 08 章


复制代码




文件下载


除非特别注明,本文『控方证人[中文字幕].Witness.for.the.Prosecution.1957.BluRay.1080p.DTS-HD.MA.2.0.x265.10bit-DreamHD 5.91GB』来源于互联网机器人自动抓取,非本站原创。 浮游电影网不对本文拥有版权,如有侵犯,请联系邮箱:fuyouu#yandex.com[#换成@]投诉。我们会在15个工作日内删除。 但烦请转载时请标明出处:“本文转载于『浮游电影网』,原文地址:https://www.fuyouu.com/22947.html

评论吧骚年!

发表你的见解   

昵称*

E-mail*(建议输入,以便收到博主回复的提示邮件)

验证码*

您可以使用eMule或eMule Mod(Windows)、aMule(Win、Linux、Mac)等软件下载eD2k链接。。
eMule收藏集(.emulecollection)文件是您选中的所有链接的列表文件。eMule可以直接下载它们。
按住SHIFT键选择可以选中多个选择框。
可用文件名和大小选择器来选择文件。
文件名选择器帮您根据文件名称或后缀来选择文件。不分大小写。
符号使用:
和:空格( )、+
不包含:-
或:|
转义:一对英文引号("");
匹配开头:^
匹配结尾:$
例如:
选中所有名称中包含有“eMule”或“0.49c”字眼,但不包含有“exe”字眼的:emule|0.49c -exe
选中所有名称的开头是“eMule”,结尾是“0.49c”的:^emule 0.49c$
选中所有名称中带有“eMule 0.49c”的(必须是“eMule 0.49c”,中间没有别的字符,不能是“eMule fake 0.49c”),需要转义:"emule 0.49c"
大小选择器帮您根据文件大小选择文件。