当前位置: 首页 >> 港台电影 >> 霹雳大喇叭[国语配音/中文字幕].Wheres.Officer.Tuba.1986.Bluray.1080p.LPCM2.0.x265.10bit-DreamHD 6.89GB >> 正文

霹雳大喇叭[国语配音/中文字幕].Wheres.Officer.Tuba.1986.Bluray.1080p.LPCM2.0.x265.10bit-DreamHD 6.89GB

2022年12月26日 17:34:45     电影发布:来源于网络     电影分类:港台电影     评论(0)    

◎标 题 霹雳大喇叭

◎译 名 Where's Officer Tuba?

◎年 代 1986

◎产 地 中国香港

◎类 别 喜剧 / 恐怖

◎语 言 粤语

◎上映日期 1986-03-20

◎IMDb评分 6/10 (236人评价)

◎IMDb链接 https://www.imdb.com/title/tt0095865/

◎豆瓣评分 6.7/10 (4124人评价)

◎豆瓣链接 https://movie.douban.com/subject/1477288/

◎片 长 88 分钟

◎导 演 陈欣健 Philip Chan

刘观伟 Ricky Lau

◎演 员 洪金宝 Sammo Hung Kam-Bo

张学友 Jacky Cheung

王祖贤 Joey Wong

姜大卫 David Chiang

冯淬帆 Stanley Fung

秦沛 Paul Chun

林正英 Ching-Ying Lam

元华 Wah Yuen

张坚庭 Alfred Cheung

太保 Po Tai

秦蔚文 Wai Man Chun

张冲 Paul Chang Chung

张翼 Yi Chang

区海伦 Hoi-Lun Au

卢雄 Paul Lo

冯雪瑞 Xuerui Feng

刘秋生 Chau Sang Lau

岑建勋 John Sham

杨斯 Bolo Yeung

田青 Ching Tien

黄正利 Jang Lee Hwang

黄锦燊 Melvin Wong

萧德虎 Siu Tak-Foo

洪金宝 Sammo Hung Kam-Bo

朱嘉懿 Julia Chu

黄锦燊 Melvin Wong

黄岳泰 Arthur Wong

周惠坤 Thomas Chow

刘秋生 Chau Sang Lau

黄志明 Wong Chi-Ming

◎简 介

陈文俊(洪金宝 饰)和张定其(张学友 饰)只是警队中的无名小卒,却在机缘巧合之下被指派到神探(姜大卫 饰)手下助其侦破“千面人”之案。没想到,一场意外中神探不幸丧生,可是,心愿未了的他显然不愿就此归去,而是化为冤魂,缠上了陈文俊和张定其两人,要他们破案为自己报仇。

神探威胁陈文俊,若不帮他报仇,就要破坏他和女友乔娜(王祖贤 饰)之间的姻缘。经不住神探的死缠烂打和卑鄙威胁,个性胆小怕事的陈文俊只能答应下来。就这样,陈文俊和张定其开始了对案件的追查,在神探的暗中帮助下,他们最终将罪犯捉拿归案,陈文俊和乔娜亦有情人终成眷属。

  1. ##### MediaInfo ######

  2. General

  3. Unique ID : 198096621371922483103639322954983079943 (0x95080580E8280879BA67E6E9CFA10007)

  4. Complete name : Wheres.Officer.Tuba.1986.Bluray.1080p.LPCM2.0.x265.10bit-DreamHD.mkv

  5. Format : Matroska

  6. Format version : Version 4

  7. File size : 6.89 GiB

  8. Duration : 1 h 33 min

  9. Overall bit rate : 10.6 Mb/s

  10. Encoded date : UTC 2022-01-16 05:37:24

  11. Writing application : mkvmerge v62.0.0 ('Apollo') 64-bit

  12. Writing library : libebml v1.4.2 + libmatroska v1.6.4


  13. Video

  14. ID : 1

  15. Format : HEVC

  16. Format/Info : High Efficiency Video Coding

  17. Format profile : Main [email protected]@Main

  18. Codec ID : V_MPEGH/ISO/HEVC

  19. Duration : 1 h 33 min

  20. Bit rate : 5 945 kb/s

  21. Width : 1 920 pixels

  22. Height : 1 080 pixels

  23. Display aspect ratio : 16:9

  24. Frame rate mode : Constant

  25. Frame rate : 24.000 FPS

  26. Color space : YUV

  27. Chroma subsampling : 4:2:0

  28. Bit depth : 10 bits

  29. Bits/(Pixel*Frame) : 0.119

  30. Stream size : 3.87 GiB (56%)

  31. Writing library : x265 3.5+10-82786fccc:[Windows][MSVC 1929][64 bit] 10bit

  32. Encoding settings : cpuid=1111039 / frame-threads=5 / numa-pools=36,36 / wpp / no-pmode / no-pme / no-psnr / no-ssim / log-level=2 / input-csp=1 / input-res=1920x1080 / interlace=0 / total-frames=0 / level-idc=0 / high-tier=1 / uhd-bd=0 / ref=6 / no-allow-non-conformance / repeat-headers / annexb / no-aud / no-eob / no-eos / no-hrd / info / hash=0 / no-temporal-layers / no-open-gop / min-keyint=24 / keyint=250 / gop-lookahead=0 / bframes=8 / b-adapt=2 / b-pyramid / bframe-bias=0 / rc-lookahead=24 / lookahead-slices=6 / scenecut=40 / hist-scenecut=0 / radl=0 / no-splice / no-intra-refresh / ctu=64 / min-cu-size=8 / no-rect / no-amp / max-tu-size=32 / tu-inter-depth=1 / tu-intra-depth=1 / limit-tu=0 / rdoq-level=0 / dynamic-rd=0.00 / no-ssim-rd / signhide / no-tskip / nr-intra=0 / nr-inter=0 / no-constrained-intra / no-strong-intra-smoothing / max-merge=3 / limit-refs=1 / no-limit-modes / me=2 / subme=7 / merange=48 / temporal-mvp / no-frame-dup / no-hme / weightp / weightb / no-analyze-src-pics / deblock=0:0 / sao / no-sao-non-deblock / rd=4 / selective-sao=4 / early-skip / rskip / no-fast-intra / no-tskip-fast / no-cu-lossless / b-intra / no-splitrd-skip / rdpenalty=0 / psy-rd=2.00 / psy-rdoq=0.00 / no-rd-refine / no-lossless / cbqpoffs=0 / crqpoffs=0 / rc=crf / crf=16.0 / qcomp=0.60 / qpstep=4 / stats-write=0 / stats-read=0 / ipratio=1.40 / pbratio=1.30 / aq-mode=3 / aq-strength=1.00 / cutree / zone-count=0 / no-strict-cbr / qg-size=32 / no-rc-grain / qpmax=69 / qpmin=0 / no-const-vbv / sar=0 / overscan=0 / videoformat=5 / range=0 / colorprim=2 / transfer=2 / colormatrix=2 / chromaloc=0 / display-window=0 / cll=0,0 / min-luma=0 / max-luma=1023 / log2-max-poc-lsb=8 / vui-timing-info / vui-hrd-info / slices=1 / no-opt-qp-pps / no-opt-ref-list-length-pps / no-multi-pass-opt-rps / scenecut-bias=0.05 / hist-threshold=0.03 / no-opt-cu-delta-qp / aq-motion / no-hdr10 / no-hdr10-opt / no-dhdr10-opt / no-idr-recovery-sei / analysis-reuse-level=0 / analysis-save-reuse-level=0 / analysis-load-reuse-level=0 / scale-factor=0 / refine-intra=0 / refine-inter=0 / refine-mv=1 / refine-ctu-distortion=0 / no-limit-sao / ctu-info=0 / no-lowpass-dct / refine-analysis-type=0 / copy-pic=1 / max-ausize-factor=1.0 / no-dynamic-refine / no-single-sei / no-hevc-aq / no-svt / no-field / qp-adaptation-range=1.00 / scenecut-aware-qp=0conformance-window-offsets / right=0 / bottom=0 / decoder-max-rate=0 / no-vbv-live-multi-pass

  33. Default : Yes

  34. Forced : No


  35. Audio #1

  36. ID : 2

  37. Format : PCM

  38. Format settings : Little / Signed

  39. Codec ID : A_PCM/INT/LIT

  40. Duration : 1 h 33 min

  41. Bit rate mode : Constant

  42. Bit rate : 2 304 kb/s

  43. Channel(s) : 2 channels

  44. Sampling rate : 48.0 kHz

  45. Frame rate : 25.000 FPS (1920 SPF)

  46. Bit depth : 24 bits

  47. Stream size : 1.50 GiB (22%)

  48. Language : Chinese

  49. Default : Yes

  50. Forced : No


  51. Audio #2

  52. ID : 3

  53. Format : PCM

  54. Format settings : Little / Signed

  55. Codec ID : A_PCM/INT/LIT

  56. Duration : 1 h 33 min

  57. Bit rate mode : Constant

  58. Bit rate : 2 304 kb/s

  59. Channel(s) : 2 channels

  60. Sampling rate : 48.0 kHz

  61. Frame rate : 25.000 FPS (1920 SPF)

  62. Bit depth : 24 bits

  63. Stream size : 1.50 GiB (22%)

  64. Language : Chinese

  65. Default : Yes

  66. Forced : No


  67. Text #1

  68. ID : 4

  69. Format : PGS

  70. Muxing mode : zlib

  71. Codec ID : S_HDMV/PGS

  72. Codec ID/Info : Picture based subtitle format used on BDs/HD-DVDs

  73. Duration : 1 h 30 min

  74. Bit rate : 29.1 kb/s

  75. Count of elements : 1767

  76. Stream size : 18.9 MiB (0%)

  77. Language : Chinese

  78. Default : Yes

  79. Forced : No


  80. Text #2

  81. ID : 5

  82. Format : PGS

  83. Muxing mode : zlib

  84. Codec ID : S_HDMV/PGS

  85. Codec ID/Info : Picture based subtitle format used on BDs/HD-DVDs

  86. Duration : 1 h 30 min

  87. Bit rate : 29.7 kb/s

  88. Count of elements : 1763

  89. Stream size : 19.3 MiB (0%)

  90. Language : Chinese

  91. Default : Yes

  92. Forced : No


  93. Text #3

  94. ID : 6

  95. Format : PGS

  96. Muxing mode : zlib

  97. Codec ID : S_HDMV/PGS

  98. Codec ID/Info : Picture based subtitle format used on BDs/HD-DVDs

  99. Duration : 1 h 30 min

  100. Bit rate : 32.7 kb/s

  101. Count of elements : 1765

  102. Stream size : 21.3 MiB (0%)

  103. Language : English

  104. Default : Yes

  105. Forced : No


  106. Menu

  107. 00:00:00.000 : en:第 01 章

  108. 00:07:19.000 : en:第 02 章

  109. 00:17:21.042 : en:第 03 章

  110. 00:25:17.792 : en:第 04 章

  111. 00:32:09.500 : en:第 05 章

  112. 00:42:58.417 : en:第 06 章

  113. 00:51:35.208 : en:第 07 章

  114. 01:00:05.458 : en:第 08 章

  115. 01:07:51.083 : en:第 09 章

  116. 01:15:25.000 : en:第 10 章

  117. 01:22:17.333 : en:第 11 章

  118. 01:30:50.708 : en:第 12 章


复制代码



文件下载


除非特别注明,本文『霹雳大喇叭[国语配音/中文字幕].Wheres.Officer.Tuba.1986.Bluray.1080p.LPCM2.0.x265.10bit-DreamHD 6.89GB』来源于互联网机器人自动抓取,非本站原创。 浮游电影网不对本文拥有版权,如有侵犯,请联系邮箱:fuyouu#yandex.com[#换成@]投诉。我们会在15个工作日内删除。 但烦请转载时请标明出处:“本文转载于『浮游电影网』,原文地址:https://www.fuyouu.com/22945.html

评论吧骚年!

发表你的见解   

昵称*

E-mail*(建议输入,以便收到博主回复的提示邮件)

验证码*

您可以使用eMule或eMule Mod(Windows)、aMule(Win、Linux、Mac)等软件下载eD2k链接。。
eMule收藏集(.emulecollection)文件是您选中的所有链接的列表文件。eMule可以直接下载它们。
按住SHIFT键选择可以选中多个选择框。
可用文件名和大小选择器来选择文件。
文件名选择器帮您根据文件名称或后缀来选择文件。不分大小写。
符号使用:
和:空格( )、+
不包含:-
或:|
转义:一对英文引号("");
匹配开头:^
匹配结尾:$
例如:
选中所有名称中包含有“eMule”或“0.49c”字眼,但不包含有“exe”字眼的:emule|0.49c -exe
选中所有名称的开头是“eMule”,结尾是“0.49c”的:^emule 0.49c$
选中所有名称中带有“eMule 0.49c”的(必须是“eMule 0.49c”,中间没有别的字符,不能是“eMule fake 0.49c”),需要转义:"emule 0.49c"
大小选择器帮您根据文件大小选择文件。