当前位置: 首页 >> 港台电影 >> 失衡凶间[国粤英多音轨/简繁英字幕].Tale.From.the.Occult.2022.BluRay.1080p.2Audio.TrueHD.5.1.x265.10bit-ALT 8.88GB >> 正文

失衡凶间[国粤英多音轨/简繁英字幕].Tale.From.the.Occult.2022.BluRay.1080p.2Audio.TrueHD.5.1.x265.10bit-ALT 8.88GB

2022年12月26日 17:34:10     电影发布:来源于网络     电影分类:港台电影     评论(0)    

◎标 题 失衡凶间

◎译 名 失衡人间 / Tales from the Occult

◎片 名 失衡凶間

◎年 代 2022

◎产 地 中国香港

◎类 别 悬疑

◎语 言 粤语

◎上映日期 2022-09-15(中国香港) / 2022-04-29(远东电影节)

◎IMDb评分 4.7/10 (40人评价)

◎IMDb链接 https://www.imdb.com/title/tt15012154/

◎豆瓣链接 https://movie.douban.com/subject/35387597/

◎片 长 111分钟

◎导 演 陈果 Fruit Chan

冯志强 Chi Keung Fung

◎演 员 任贤齐 Richie Jen

林晓峰 Jerry Lamb

颜卓灵 Cherry Ngan

吴海昕 Sofiee Ng

苏丽珊 Cecilia So

关楚耀 Kelvin Kwan Chor-yiu

庄澄 John Chong

邓汉强 Matthew Tang

◎简 介

影片由庄澄及邓汉强监制,陈果、冯志强、许业生分别执导,结集三个关于空间的诡异故事:《死场》《唐楼》《暗角》,由任贤齐、林晓峰、颜卓灵、吴海昕、苏丽珊、关楚耀主演,讲述三个人性失衡,隐藏在城市森林中的离奇故事。

以“不同空间发生的心理故事”为主线,贯穿三个单元。三个故事分别是:由陈果执导、源于廿多年前一场轰动香港的商业大厦火警,结合时下流行的网上直播及世纪疫症元素的《死场》;由冯志强导演,怨灵与住客在唐楼梯间狭路相逢,展开奇幻攻防战的《唐楼》;及许业生执导,讲述人气歌手搬到新居后,经常感到阴暗角落有一双眼睛凝视着的《暗角》。

  1. ##### MediaInfo ######

  2. General

  3. Unique ID : 63662984083120190563263045584780488796 (0x2FE50B740BCD029A0320FCD9DC3F705C)

  4. Complete name : Tale.From.the.Occult.2022.BluRay.1080p.2Audio.TrueHD.5.1.x265.10bit-ALT.mkv

  5. Format : Matroska

  6. Format version : Version 4

  7. File size : 8.88 GiB

  8. Duration : 1 h 51 min

  9. Overall bit rate mode : Variable

  10. Overall bit rate : 11.4 Mb/s

  11. Encoded date : UTC 2022-12-25 10:17:18

  12. Writing application : mkvmerge v49.0.0 ('Sick Of Losing Soulmates') 64-bit

  13. Writing library : libebml v1.4.0 + libmatroska v1.6.1


  14. Video

  15. ID : 1

  16. Format : HEVC

  17. Format/Info : High Efficiency Video Coding

  18. Format profile : Main [email protected]@High

  19. Codec ID : V_MPEGH/ISO/HEVC

  20. Duration : 1 h 51 min

  21. Bit rate : 4 093 kb/s

  22. Width : 1 920 pixels

  23. Height : 814 pixels

  24. Display aspect ratio : 2.35:1

  25. Frame rate mode : Constant

  26. Frame rate : 24.000 FPS

  27. Color space : YUV

  28. Chroma subsampling : 4:2:0

  29. Bit depth : 10 bits

  30. Bits/(Pixel*Frame) : 0.109

  31. Stream size : 3.18 GiB (36%)

  32. Title : HEVC, [email protected]@High, 24 fps @ 4092 kbps

  33. Writing library : x265 3.5+40-6064f96a6:[Windows][GCC 12.2.0][64 bit] 10bit

  34. Encoding settings : cpuid=1111039 / frame-threads=4 / numa-pools=16 / wpp / no-pmode / no-pme / no-psnr / no-ssim / log-level=2 / input-csp=1 / input-res=1920x814 / interlace=0 / total-frames=160128 / level-idc=51 / high-tier=1 / uhd-bd=0 / ref=5 / no-allow-non-conformance / no-repeat-headers / annexb / no-aud / no-eob / no-eos / no-hrd / info / hash=0 / no-temporal-layers / open-gop / min-keyint=24 / keyint=240 / gop-lookahead=0 / bframes=6 / b-adapt=2 / b-pyramid / bframe-bias=0 / rc-lookahead=40 / lookahead-slices=0 / scenecut=40 / no-hist-scenecut / radl=0 / no-splice / no-intra-refresh / ctu=32 / min-cu-size=8 / no-rect / no-amp / max-tu-size=32 / tu-inter-depth=3 / tu-intra-depth=3 / limit-tu=4 / rdoq-level=2 / dynamic-rd=0.00 / no-ssim-rd / signhide / no-tskip / nr-intra=0 / nr-inter=0 / no-constrained-intra / no-strong-intra-smoothing / max-merge=4 / limit-refs=1 / limit-modes / me=3 / subme=4 / merange=25 / temporal-mvp / no-frame-dup / no-hme / weightp / weightb / no-analyze-src-pics / deblock=-3:-3 / no-sao / no-sao-non-deblock / rd=6 / selective-sao=0 / no-early-skip / rskip / no-fast-intra / no-tskip-fast / no-cu-lossless / b-intra / no-splitrd-skip / rdpenalty=0 / psy-rd=2.00 / psy-rdoq=1.00 / no-rd-refine / no-lossless / cbqpoffs=-2 / crqpoffs=-2 / rc=crf / crf=17.0 / qcomp=0.65 / qpstep=4 / stats-write=0 / stats-read=0 / vbv-maxrate=80000 / vbv-bufsize=80000 / vbv-init=0.9 / min-vbv-fullness=50.0 / max-vbv-fullness=80.0 / crf-max=0.0 / crf-min=0.0 / ipratio=1.40 / pbratio=1.30 / aq-mode=2 / aq-strength=0.85 / cutree / zone-count=0 / no-strict-cbr / qg-size=32 / no-rc-grain / qpmax=69 / qpmin=0 / no-const-vbv / sar=1 / overscan=0 / videoformat=5 / range=0 / colorprim=1 / transfer=1 / colormatrix=1 / chromaloc=0 / display-window=0 / cll=0,0 / min-luma=0 / max-luma=1023 / log2-max-poc-lsb=8 / vui-timing-info / vui-hrd-info / slices=1 / no-opt-qp-pps / no-opt-ref-list-length-pps / no-multi-pass-opt-rps / scenecut-bias=0.05 / hist-threshold=0.03 / no-opt-cu-delta-qp / no-aq-motion / no-hdr10 / no-hdr10-opt / no-dhdr10-opt / no-idr-recovery-sei / analysis-reuse-level=0 / analysis-save-reuse-level=0 / analysis-load-reuse-level=0 / scale-factor=0 / refine-intra=0 / refine-inter=0 / refine-mv=1 / refine-ctu-distortion=0 / no-limit-sao / ctu-info=0 / no-lowpass-dct / refine-analysis-type=0 / copy-pic=1 / max-ausize-factor=1.0 / no-dynamic-refine / no-single-sei / no-hevc-aq / no-svt / no-field / qp-adaptation-range=1.00 / scenecut-aware-qp=0conformance-window-offsets / right=0 / bottom=0 / decoder-max-rate=0 / no-vbv-live-multi-pass

  35. Language : English

  36. Default : Yes

  37. Forced : No

  38. Color range : Limited

  39. Color primaries : BT.709

  40. Transfer characteristics : BT.709

  41. Matrix coefficients : BT.709


  42. Audio #1

  43. ID : 2

  44. Format : MLP FBA

  45. Format/Info : Meridian Lossless Packing FBA

  46. Commercial name : Dolby TrueHD

  47. Codec ID : A_TRUEHD

  48. Duration : 1 h 51 min

  49. Bit rate mode : Variable

  50. Bit rate : 2 739 kb/s

  51. Maximum bit rate : 4 500 kb/s

  52. Channel(s) : 6 channels

  53. Channel layout : L R C LFE Ls Rs

  54. Sampling rate : 96.0 kHz

  55. Frame rate : 1 200.000 FPS (80 SPF)

  56. Compression mode : Lossless

  57. Stream size : 2.13 GiB (24%)

  58. Title : Cantonese Dolby TrueHD Audio 5.1 @ 3379 kbps

  59. Language : Chinese

  60. Default : Yes

  61. Forced : No


  62. Audio #2

  63. ID : 3

  64. Format : AC-3

  65. Format/Info : Audio Coding 3

  66. Commercial name : Dolby Digital

  67. Codec ID : A_AC3

  68. Duration : 1 h 51 min

  69. Bit rate mode : Constant

  70. Bit rate : 640 kb/s

  71. Channel(s) : 6 channels

  72. Channel layout : L R C LFE Ls Rs

  73. Sampling rate : 48.0 kHz

  74. Frame rate : 31.250 FPS (1536 SPF)

  75. Compression mode : Lossy

  76. Stream size : 509 MiB (6%)

  77. Title : Cantonese Dolby Digital Audio 5.1 @ 640 kbps

  78. Language : Chinese

  79. Service kind : Complete Main

  80. Default : No

  81. Forced : No


  82. Audio #3

  83. ID : 4

  84. Format : MLP FBA

  85. Format/Info : Meridian Lossless Packing FBA

  86. Commercial name : Dolby TrueHD

  87. Codec ID : A_TRUEHD

  88. Duration : 1 h 51 min

  89. Bit rate mode : Variable

  90. Bit rate : 3 110 kb/s

  91. Maximum bit rate : 4 962 kb/s

  92. Channel(s) : 6 channels

  93. Channel layout : L R C LFE Ls Rs

  94. Sampling rate : 96.0 kHz

  95. Frame rate : 1 200.000 FPS (80 SPF)

  96. Compression mode : Lossless

  97. Stream size : 2.42 GiB (27%)

  98. Title : Mandarin Dolby TrueHD Audio 5.1 @ 3751 kbps

  99. Language : Chinese

  100. Default : No

  101. Forced : No


  102. Audio #4

  103. ID : 5

  104. Format : AC-3

  105. Format/Info : Audio Coding 3

  106. Commercial name : Dolby Digital

  107. Codec ID : A_AC3

  108. Duration : 1 h 51 min

  109. Bit rate mode : Constant

  110. Bit rate : 640 kb/s

  111. Channel(s) : 6 channels

  112. Channel layout : L R C LFE Ls Rs

  113. Sampling rate : 48.0 kHz

  114. Frame rate : 31.250 FPS (1536 SPF)

  115. Compression mode : Lossy

  116. Stream size : 509 MiB (6%)

  117. Title : Mandarin Dolby Digital Audio 5.1 @ 640 kbps

  118. Language : Chinese

  119. Service kind : Complete Main

  120. Default : No

  121. Forced : No


  122. Text #1

  123. ID : 6

  124. Format : PGS

  125. Codec ID : S_HDMV/PGS

  126. Codec ID/Info : Picture based subtitle format used on BDs/HD-DVDs

  127. Duration : 1 h 45 min

  128. Bit rate : 27.0 kb/s

  129. Count of elements : 2397

  130. Stream size : 20.3 MiB (0%)

  131. Title : Cht/SUP 原盘繁体

  132. Language : Chinese

  133. Default : No

  134. Forced : No


  135. Text #2

  136. ID : 7

  137. Format : PGS

  138. Codec ID : S_HDMV/PGS

  139. Codec ID/Info : Picture based subtitle format used on BDs/HD-DVDs

  140. Duration : 1 h 45 min

  141. Bit rate : 25.1 kb/s

  142. Count of elements : 2397

  143. Stream size : 18.9 MiB (0%)

  144. Title : Chs/SUP 原盘简体

  145. Language : Chinese

  146. Default : Yes

  147. Forced : No


  148. Text #3

  149. ID : 8

  150. Format : PGS

  151. Codec ID : S_HDMV/PGS

  152. Codec ID/Info : Picture based subtitle format used on BDs/HD-DVDs

  153. Duration : 1 h 45 min

  154. Bit rate : 25.0 kb/s

  155. Count of elements : 2400

  156. Stream size : 18.8 MiB (0%)

  157. Title : Eng/SUP

  158. Language : English

  159. Default : No

  160. Forced : No


  161. Menu

  162. 00:00:00.000 : en:第 01 章

  163. 00:13:21.417 : en:第 02 章

  164. 00:21:38.375 : en:第 03 章

  165. 00:33:15.500 : en:第 04 章

  166. 00:39:11.625 : en:第 05 章

  167. 00:48:58.042 : en:第 06 章

  168. 01:07:11.417 : en:第 07 章

  169. 01:15:02.000 : en:第 08 章

  170. 01:21:28.250 : en:第 09 章

  171. 01:29:43.292 : en:第 10 章

  172. 01:37:07.958 : en:第 11 章

  173. 01:43:44.125 : en:第 12 章


复制代码




文件下载


除非特别注明,本文『失衡凶间[国粤英多音轨/简繁英字幕].Tale.From.the.Occult.2022.BluRay.1080p.2Audio.TrueHD.5.1.x265.10bit-ALT 8.88GB』来源于互联网机器人自动抓取,非本站原创。 浮游电影网不对本文拥有版权,如有侵犯,请联系邮箱:fuyouu#yandex.com[#换成@]投诉。我们会在15个工作日内删除。 但烦请转载时请标明出处:“本文转载于『浮游电影网』,原文地址:https://www.fuyouu.com/22944.html

评论吧骚年!

发表你的见解   

昵称*

E-mail*(建议输入,以便收到博主回复的提示邮件)

验证码*

您可以使用eMule或eMule Mod(Windows)、aMule(Win、Linux、Mac)等软件下载eD2k链接。。
eMule收藏集(.emulecollection)文件是您选中的所有链接的列表文件。eMule可以直接下载它们。
按住SHIFT键选择可以选中多个选择框。
可用文件名和大小选择器来选择文件。
文件名选择器帮您根据文件名称或后缀来选择文件。不分大小写。
符号使用:
和:空格( )、+
不包含:-
或:|
转义:一对英文引号("");
匹配开头:^
匹配结尾:$
例如:
选中所有名称中包含有“eMule”或“0.49c”字眼,但不包含有“exe”字眼的:emule|0.49c -exe
选中所有名称的开头是“eMule”,结尾是“0.49c”的:^emule 0.49c$
选中所有名称中带有“eMule 0.49c”的(必须是“eMule 0.49c”,中间没有别的字符,不能是“eMule fake 0.49c”),需要转义:"emule 0.49c"
大小选择器帮您根据文件大小选择文件。