当前位置: 首页 >> 港台电影 >> 一眉道人[国粤多音轨/简繁英字幕].Vampire.Vs.Vampire.1989.BluRay.1080p.TrueHD5.1.x265.10bit-DreamHD 6.57GB >> 正文

一眉道人[国粤多音轨/简繁英字幕].Vampire.Vs.Vampire.1989.BluRay.1080p.TrueHD5.1.x265.10bit-DreamHD 6.57GB

2022年12月25日 15:54:06     电影发布:来源于网络     电影分类:港台电影     评论(0)    

◎标 题 一眉道人

◎译 名 Vampire Vs Vampire

◎年 代 1989

◎产 地 中国香港

◎类 别 喜剧 / 动作 / 恐怖 / 奇幻

◎语 言 粤语

◎上映日期 1989-07-26

◎IMDb评分 6.1/10 (460人评价)

◎IMDb链接 https://www.imdb.com/title/tt0098690/

◎豆瓣评分 7.9/10 (43103人评价)

◎豆瓣链接 https://movie.douban.com/subject/1472783/

◎片 长 86 分钟

◎导 演 林正英 Ching-Ying Lam

◎演 员 林正英 Ching-Ying Lam

钱小豪 Siu-hou Chin

吴君如 Sandra Ng

黄智强 Ji Keung Wong

林富伟 Fu-wai Lam

林正宏 Jing Wang Lam

楼南光 Billy Lau

叶琐 So Yip

林雪 Suet Lam

刘玉婷 Yuk-Ting Lau

玛利亚 Maria Cordero

陈佩珊 Joanna Chan Pui-San

吕方 Fong Liu

李华干 Wah-Kon Lee

蔡澜 Lam Chua

董玮 Wai Tung

周少龙 Shao Lung Chou

成鍢s Chin Yung Shing

◎简 介

一眉道人(林正英 饰)修为高强,擅长茅山道术,和徒弟阿豪(钱小豪 饰)住在一个小镇上;他养了一只清朝的小僵尸,小僵尸经常帮他和阿豪办事。一天,一眉道人被邻镇的人邀请去捉鬼,因为邻镇瘟疫蔓延,不时有僵尸出没。一眉道人带上阿豪和小僵尸出发了。

在邻镇一眉道人他们遇上了一群修女,阿豪弄出不少笑话。一眉道人发现邻镇的引用水源都被尸毒污染,不能饮用,于是和阿豪一起寻找水源。他在教堂的地下室发现了僵尸的痕迹,原来此处本来放着一具西洋僵尸,邻镇乡公所的所长意外令西洋僵尸复活了。一场精彩的中国法术对付西洋僵尸的好戏上演了。

  1. ##### MediaInfo ######

  2. General

  3. Unique ID : 76343235489394201399084528361982068246 (0x396F2C1DB0CD2314E22973B64FDF0616)

  4. Complete name : Vampire.Vs.Vampire.1989.BluRay.1080p.TrueHD5.1.x265.10bit-DreamHD.mkv

  5. Format : Matroska

  6. Format version : Version 4

  7. File size : 6.56 GiB

  8. Duration : 1 h 27 min

  9. Overall bit rate mode : Variable

  10. Overall bit rate : 10.7 Mb/s

  11. Encoded date : UTC 2019-05-28 14:15:08

  12. Writing application : mkvmerge v34.0.0 ('Sight and Seen') 64-bit

  13. Writing library : libebml v1.3.7 + libmatroska v1.5.0


  14. Video

  15. ID : 1

  16. Format : HEVC

  17. Format/Info : High Efficiency Video Coding

  18. Format profile : Main [email protected]@Main

  19. Codec ID : V_MPEGH/ISO/HEVC

  20. Duration : 1 h 27 min

  21. Bit rate : 4 581 kb/s

  22. Width : 1 920 pixels

  23. Height : 1 024 pixels

  24. Display aspect ratio : 1.85:1

  25. Frame rate mode : Constant

  26. Frame rate : 24.000 FPS

  27. Color space : YUV

  28. Chroma subsampling : 4:2:0

  29. Bit depth : 10 bits

  30. Bits/(Pixel*Frame) : 0.097

  31. Stream size : 2.80 GiB (43%)

  32. Writing library : x265 3.0_Au+27-3f4fb9a2ac68:[Windows][MSVC 1920][64 bit] 10bit

  33. Encoding settings : cpuid=1111039 / frame-threads=4 / numa-pools=16 / wpp / no-pmode / no-pme / no-psnr / no-ssim / log-level=2 / input-csp=1 / input-res=1920x1024 / interlace=0 / total-frames=0 / level-idc=0 / high-tier=1 / uhd-bd=0 / ref=6 / no-allow-non-conformance / no-repeat-headers / annexb / no-aud / no-hrd / info / hash=0 / no-temporal-layers / no-open-gop / min-keyint=24 / keyint=250 / gop-lookahead=0 / bframes=8 / b-adapt=2 / b-pyramid / bframe-bias=0 / rc-lookahead=24 / lookahead-slices=6 / scenecut=40 / radl=0 / no-splice / no-intra-refresh / ctu=32 / min-cu-size=8 / no-rect / no-amp / max-tu-size=32 / tu-inter-depth=1 / tu-intra-depth=1 / limit-tu=0 / rdoq-level=0 / dynamic-rd=0.00 / no-ssim-rd / signhide / no-tskip / nr-intra=0 / nr-inter=0 / no-constrained-intra / no-strong-intra-smoothing / max-merge=2 / limit-refs=3 / no-limit-modes / me=2 / subme=6 / merange=64 / temporal-mvp / weightp / weightb / no-analyze-src-pics / deblock=0:0 / no-sao / no-sao-non-deblock / rd=4 / no-early-skip / rskip / no-fast-intra / no-tskip-fast / no-cu-lossless / no-b-intra / no-splitrd-skip / rdpenalty=0 / psy-rd=2.00 / psy-rdoq=0.00 / no-rd-refine / no-lossless / cbqpoffs=0 / crqpoffs=0 / rc=crf / crf=18.0 / qcomp=0.60 / qpstep=4 / stats-write=0 / stats-read=0 / ipratio=1.40 / pbratio=1.30 / aq-mode=1 / aq-strength=1.00 / cutree / zone-count=0 / no-strict-cbr / qg-size=32 / no-rc-grain / qpmax=69 / qpmin=0 / no-const-vbv / sar=0 / overscan=0 / videoformat=5 / range=0 / colorprim=2 / transfer=2 / colormatrix=2 / chromaloc=0 / display-window=0 / max-cll=0,0 / min-luma=0 / max-luma=1023 / log2-max-poc-lsb=8 / vui-timing-info / vui-hrd-info / slices=1 / no-opt-qp-pps / no-opt-ref-list-length-pps / no-multi-pass-opt-rps / scenecut-bias=0.05 / no-opt-cu-delta-qp / aq-motion / no-hdr / no-hdr-opt / no-dhdr10-opt / no-idr-recovery-sei / analysis-reuse-level=5 / scale-factor=0 / refine-intra=0 / refine-inter=0 / refine-mv=0 / refine-ctu-distortion=0 / no-limit-sao / ctu-info=0 / no-lowpass-dct / refine-analysis-type=0 / copy-pic=1 / max-ausize-factor=1.0 / no-dynamic-refine / no-single-sei / no-hevc-aq / no-svt / qp-adaptation-range=1.00

  34. Default : Yes

  35. Forced : No


  36. Audio #1

  37. ID : 2

  38. Format : MLP FBA

  39. Format/Info : Meridian Lossless Packing FBA

  40. Commercial name : Dolby TrueHD

  41. Codec ID : A_TRUEHD

  42. Duration : 1 h 27 min

  43. Bit rate mode : Variable

  44. Bit rate : 2 999 kb/s

  45. Maximum bit rate : 4 356 kb/s

  46. Channel(s) : 6 channels

  47. Channel layout : L R C LFE Ls Rs

  48. Sampling rate : 96.0 kHz

  49. Frame rate : 1 200.000 FPS (80 SPF)

  50. Compression mode : Lossless

  51. Stream size : 1.83 GiB (28%)

  52. Title : Cantonese

  53. Language : Chinese

  54. Default : Yes

  55. Forced : No


  56. Audio #2

  57. ID : 3

  58. Format : MLP FBA

  59. Format/Info : Meridian Lossless Packing FBA

  60. Commercial name : Dolby TrueHD

  61. Codec ID : A_TRUEHD

  62. Duration : 1 h 27 min

  63. Bit rate mode : Variable

  64. Bit rate : 2 986 kb/s

  65. Maximum bit rate : 4 356 kb/s

  66. Channel(s) : 6 channels

  67. Channel layout : L R C LFE Ls Rs

  68. Sampling rate : 96.0 kHz

  69. Frame rate : 1 200.000 FPS (80 SPF)

  70. Compression mode : Lossless

  71. Stream size : 1.83 GiB (28%)

  72. Title : Mandarin

  73. Language : Chinese

  74. Default : No

  75. Forced : No


  76. Text #1

  77. ID : 4

  78. Format : PGS

  79. Muxing mode : zlib

  80. Codec ID : S_HDMV/PGS

  81. Codec ID/Info : Picture based subtitle format used on BDs/HD-DVDs

  82. Duration : 1 h 24 min

  83. Bit rate : 25.7 kb/s

  84. Count of elements : 1683

  85. Stream size : 15.6 MiB (0%)

  86. Title : CHS

  87. Language : Chinese

  88. Default : Yes

  89. Forced : No


  90. Text #2

  91. ID : 5

  92. Format : PGS

  93. Muxing mode : zlib

  94. Codec ID : S_HDMV/PGS

  95. Codec ID/Info : Picture based subtitle format used on BDs/HD-DVDs

  96. Duration : 1 h 24 min

  97. Bit rate : 27.7 kb/s

  98. Count of elements : 1683

  99. Stream size : 16.8 MiB (0%)

  100. Title : CHT

  101. Language : Chinese

  102. Default : No

  103. Forced : No


  104. Text #3

  105. ID : 6

  106. Format : PGS

  107. Muxing mode : zlib

  108. Codec ID : S_HDMV/PGS

  109. Codec ID/Info : Picture based subtitle format used on BDs/HD-DVDs

  110. Duration : 1 h 24 min

  111. Bit rate : 25.5 kb/s

  112. Count of elements : 1683

  113. Stream size : 15.4 MiB (0%)

  114. Title : ENG

  115. Language : English

  116. Default : No

  117. Forced : No


  118. Menu

  119. 00:00:00.000 : :Chapter 1

  120. 00:11:32.500 : :Chapter 2

  121. 00:17:53.000 : :Chapter 3

  122. 00:24:09.708 : :Chapter 4

  123. 00:30:32.166 : :Chapter 5

  124. 00:39:22.625 : :Chapter 6

  125. 00:46:07.875 : :Chapter 7

  126. 00:53:04.791 : :Chapter 8

  127. 00:58:53.541 : :Chapter 9

  128. 01:05:29.583 : :Chapter 10

  129. 01:15:10.916 : :Chapter 11

  130. 01:22:50.750 : :Chapter 12

  131. 01:27:30.500 : :Chapter 13


复制代码




文件下载


除非特别注明,本文『一眉道人[国粤多音轨/简繁英字幕].Vampire.Vs.Vampire.1989.BluRay.1080p.TrueHD5.1.x265.10bit-DreamHD 6.57GB』来源于互联网机器人自动抓取,非本站原创。 浮游电影网不对本文拥有版权,如有侵犯,请联系邮箱:fuyouu#yandex.com[#换成@]投诉。我们会在15个工作日内删除。 但烦请转载时请标明出处:“本文转载于『浮游电影网』,原文地址:https://www.fuyouu.com/22943.html

评论吧骚年!

发表你的见解   

昵称*

E-mail*(建议输入,以便收到博主回复的提示邮件)

验证码*

您可以使用eMule或eMule Mod(Windows)、aMule(Win、Linux、Mac)等软件下载eD2k链接。。
eMule收藏集(.emulecollection)文件是您选中的所有链接的列表文件。eMule可以直接下载它们。
按住SHIFT键选择可以选中多个选择框。
可用文件名和大小选择器来选择文件。
文件名选择器帮您根据文件名称或后缀来选择文件。不分大小写。
符号使用:
和:空格( )、+
不包含:-
或:|
转义:一对英文引号("");
匹配开头:^
匹配结尾:$
例如:
选中所有名称中包含有“eMule”或“0.49c”字眼,但不包含有“exe”字眼的:emule|0.49c -exe
选中所有名称的开头是“eMule”,结尾是“0.49c”的:^emule 0.49c$
选中所有名称中带有“eMule 0.49c”的(必须是“eMule 0.49c”,中间没有别的字符,不能是“eMule fake 0.49c”),需要转义:"emule 0.49c"
大小选择器帮您根据文件大小选择文件。