当前位置: 首页 >> 动画电影 >> 魔发精灵2[中文字幕].Trolls.World.Tour.2020.BluRay.1080p.TrueHD7.1.x265.10bit-DreamHD 5.37GB >> 正文

魔发精灵2[中文字幕].Trolls.World.Tour.2020.BluRay.1080p.TrueHD7.1.x265.10bit-DreamHD 5.37GB

2022年12月25日 15:53:34     电影发布:来源于网络     电影分类:动画电影     评论(0)    

◎标 题 魔发精灵2

◎译 名 魔发精灵:世界之旅 / 魔发精灵:唱游大世界(港) / 魔发精灵唱游世界(台) / 魔发精灵2:世界巡演 / 丑娃2 / 巨魔2 / 巨魔娃娃2 / Trolls 2

◎片 名 Trolls World Tour

◎年 代 2020

◎产 地 美国

◎类 别 动画 / 歌舞 / 奇幻 / 冒险

◎语 言 英语

◎上映日期 2020-08-21(中国大陆) / 2020-04-10(美国)

◎IMDb评分 6.1/10 (23989人评价)

◎IMDb链接 https://www.imdb.com/title/tt6587640/

◎豆瓣评分 6.4/10 (12591人评价)

◎豆瓣链接 https://movie.douban.com/subject/26985839/

◎片 长 90分钟

◎导 演 沃尔特·道恩 Walt Dohrn

戴维·P·史密斯 David P. Smith

◎编 剧 乔纳森·阿贝尔 Jonathan Aibel

格伦·伯杰 Glenn Berger

玛雅·福布斯 Maya Forbes

华莱士·沃洛达斯基 Wallace Wolodarsky

托马斯·丹姆 Thomas Dam

伊丽莎白·蒂佩特 Elizabeth Tippet

◎演 员 安娜·肯德里克 Anna Kendrick

贾斯汀·汀布莱克 Justin Timberlake

蕾切尔·布鲁姆 Rachel Bloom

詹姆斯·柯登 James Corden

罗恩·芬奇斯 Ron Funches

凯莉·克拉克森 Kelly Clarkson

山姆·洛克威尔 Sam Rockwell

詹米·多南 Jamie Dornan

乔治·克林顿 George Clinton

玛丽・布莱姬 Mary J. Blige

基南·汤普森 Kenan Thompson

昆瑙·内亚 Kunal Nayyar

卡洛琳·耶尔特 Caroline Hjelt

艾诺·贾沃 Aino Jawo

弗卢拉·博格 Flula Borg

伊丝特尔·迪恩 Ester Dean

奥兹·奥斯朋 Ozzy Osbourne

安东尼·拉莫斯 Anthony Ramos

卡兰·索尼 Karan Soni

查琳·易 Charlyne Yi

朴秀荣 Joy

姜涩琪 SeulGi

佐伊·丹斯切尔 Zooey Deschanel

克里斯托夫·梅兹-普莱瑟 Christopher Mintz-Plasse

凯文·迈克尔·理查德森 Kevin Michael Richardson

沃尔特·道恩 Walt Dohrn

戴维·P·史密斯 David P. Smith

达明·乔伊·伦道夫 Da'Vine Joy Randolph

贝琪·索达罗 Betsy Sodaro

马塞拉·伦茨·波普 Marcella Lentz-Pope

钱斯勒 Chance The Rapper

西奥多·沙皮洛 Theodore Shapiro

乔尔·克劳福德 Joel Crawford

◎简 介

讲述Poppy和Branch有了一个惊人的发现——除了他们之外,还有其他的魔发精灵世界,各部落的明显差异导致了巨大的冲突。当一种神秘的邪恶力量让所有的精灵世界都面临危险时,Poppy和Branch以及朋友们将踏上一段史诗般的探寻旅程,在长期不和的各精灵族群中创造和谐氛围,让大家团结起来对抗某种厄运。

这部片的音乐风格将更加多样化,流行音乐、乡村音乐、嘻哈音乐、硬摇滚、骤停打击乐、电子舞曲等都有。

  1. ##### MediaInfo ######

  2. General

  3. Unique ID : 227053473024584799203639023149154861692 (0xAAD0E884385066463FF57F11FA4C827C)

  4. Complete name : Trolls.World.Tour.2020.BluRay.1080p.TrueHD7.1.x265.10bit-DreamHD.mkv

  5. Format : Matroska

  6. Format version : Version 4

  7. File size : 5.37 GiB

  8. Duration : 1 h 30 min

  9. Overall bit rate mode : Variable

  10. Overall bit rate : 8 475 kb/s

  11. Encoded date : UTC 2020-06-26 08:25:35

  12. Writing application : mkvmerge v41.0.0 ('Smarra') 64-bit

  13. Writing library : libebml v1.3.9 + libmatroska v1.5.2


  14. Video

  15. ID : 1

  16. Format : HEVC

  17. Format/Info : High Efficiency Video Coding

  18. Format profile : Main [email protected]@Main

  19. Codec ID : V_MPEGH/ISO/HEVC

  20. Duration : 1 h 30 min

  21. Bit rate : 5 149 kb/s

  22. Width : 1 920 pixels

  23. Height : 816 pixels

  24. Display aspect ratio : 2.35:1

  25. Frame rate mode : Constant

  26. Frame rate : 23.976 (23976/1000) FPS

  27. Color space : YUV

  28. Chroma subsampling : 4:2:0

  29. Bit depth : 10 bits

  30. Bits/(Pixel*Frame) : 0.137

  31. Stream size : 3.26 GiB (61%)

  32. Writing library : x265 3.2+7-gb291a1c95+26:[Windows][MSVC 1916][64 bit] Yuuki 10bit

  33. Encoding settings : rc=crf / crf=15.0000 / qcomp=0.60 / qpstep=4 / stats-write=0 / stats-read=0 / no-lossless / no-cu-lossless / aq-mode=3 / aq-strength=1.00 / cbqpoffs=0 / crqpoffs=0 / ipratio=1.40 / pbratio=1.30 / psy-rd=2.00 / psy-rdoq=0.00 / deblock=0:0 / ref=6 / limit-refs=1 / no-limit-modes / bframes=8 / b-adapt=2 / bframe-bias=0 / b-pyramid / b-intra / weightp / weightb / min-keyint=23 / max-keyint=250 / rc-lookahead=24 / gop-lookahead=0 / scenecut=40 / radl=0 / max-cu-size=64 / min-cu-size=8 / me=2 / subme=7 / merange=48 / rdoq-level=0 / rd=4 / rdpenalty=0 / dynamic-rd=0.00 / no-rd-refine / ----- / cutree / sao / no-rect / no-amp / no-open-gop / wpp / no-pmode / no-pme / no-psnr / no-ssim / nr-intra=0 / nr-inter=0 / no-constrained-intra / no-strong-intra-smoothing / max-tu-size=32 / tu-inter-depth=1 / tu-intra-depth=1 / limit-tu=0 / qg-size=32 / qpmax=69 / qpmin=0 / ----- / cpuid=1111039 / frame-threads=5 / numa-pools=36,36 / log-level=2 / input-csp=1 / input-res=1920x816 / interlace=0 / level-idc=0 / high-tier=1 / uhd-bd=0 / no-allow-non-conformance / repeat-headers / no-aud / no-hrd / info / hash=0 / no-temporal-layers / lookahead-slices=5 / no-splice / no-intra-refresh / no-ssim-rd / signhide / no-tskip / max-merge=3 / temporal-mvp / no-hme / no-analyze-src-pics / no-sao-non-deblock / selective-sao=4 / early-skip / rskip / no-fast-intra / no-tskip-fast / no-splitrd-skip / zone-count=0 / no-strict-cbr / no-rc-grain / no-const-vbv / sar=0 / overscan=0 / videoformat=5 / range=0 / colorprim=2 / transfer=2 / colormatrix=2 / chromaloc=0 / display-window=0 / cll=0,0 / min-luma=0 / max-luma=1023 / log2-max-poc-lsb=8 / vui-timing-info / vui-hrd-info / slices=1 / no-opt-qp-pps / no-opt-ref-list-length-pps / no-multi-pass-opt-rps / scenecut-bias=0.05 / no-opt-cu-delta-qp / aq-motion / no-hdr / no-hdr-opt / no-dhdr10-opt / no-idr-recovery-sei / analysis-reuse-level=5 / scale-factor=0 / refine-intra=0 / refine-inter=0 / refine-mv=1 / refine-ctu-distortion=0 / no-limit-sao / ctu-info=0 / no-lowpass-dct / refine-analysis-type=0 / copy-pic=1 / max-ausize-factor=1.0 / no-dynamic-refine / no-single-sei / hevc-aq / no-svt / no-field / qp-adaptation-range=1.00

  34. Default : Yes

  35. Forced : No


  36. Audio

  37. ID : 2

  38. Format : MLP FBA 16-ch

  39. Format/Info : Meridian Lossless Packing FBA with 16-channel presentation

  40. Commercial name : Dolby TrueHD with Dolby Atmos

  41. Codec ID : A_TRUEHD

  42. Duration : 1 h 30 min

  43. Bit rate mode : Variable

  44. Bit rate : 3 173 kb/s

  45. Maximum bit rate : 5 049 kb/s

  46. Channel(s) : 8 channels

  47. Channel layout : L R C LFE Ls Rs Lb Rb

  48. Sampling rate : 48.0 kHz

  49. Frame rate : 1 200.000 FPS (40 SPF)

  50. Compression mode : Lossless

  51. Stream size : 2.01 GiB (37%)

  52. Default : Yes

  53. Forced : No

  54. Number of dynamic objects : 11

  55. Bed channel count : 1 channel

  56. Bed channel configuration : LFE


  57. Text #1

  58. ID : 3

  59. Format : PGS

  60. Muxing mode : zlib

  61. Codec ID : S_HDMV/PGS

  62. Codec ID/Info : Picture based subtitle format used on BDs/HD-DVDs

  63. Duration : 1 h 23 min

  64. Bit rate : 22.3 kb/s

  65. Count of elements : 2554

  66. Stream size : 13.4 MiB (0%)

  67. Language : Chinese

  68. Default : Yes

  69. Forced : No


  70. Text #2

  71. ID : 4

  72. Format : PGS

  73. Muxing mode : zlib

  74. Codec ID : S_HDMV/PGS

  75. Codec ID/Info : Picture based subtitle format used on BDs/HD-DVDs

  76. Duration : 1 h 23 min

  77. Bit rate : 22.8 kb/s

  78. Count of elements : 2554

  79. Stream size : 13.7 MiB (0%)

  80. Language : Chinese

  81. Default : No

  82. Forced : No


  83. Text #3

  84. ID : 5

  85. Format : PGS

  86. Muxing mode : zlib

  87. Codec ID : S_HDMV/PGS

  88. Codec ID/Info : Picture based subtitle format used on BDs/HD-DVDs

  89. Duration : 1 h 23 min

  90. Bit rate : 41.9 kb/s

  91. Count of elements : 2554

  92. Stream size : 25.1 MiB (0%)

  93. Language : Chinese

  94. Default : No

  95. Forced : No


  96. Text #4

  97. ID : 6

  98. Format : PGS

  99. Muxing mode : zlib

  100. Codec ID : S_HDMV/PGS

  101. Codec ID/Info : Picture based subtitle format used on BDs/HD-DVDs

  102. Duration : 1 h 23 min

  103. Bit rate : 42.3 kb/s

  104. Count of elements : 2554

  105. Stream size : 25.4 MiB (0%)

  106. Language : Chinese

  107. Default : No

  108. Forced : No


  109. Text #5

  110. ID : 7

  111. Format : PGS

  112. Muxing mode : zlib

  113. Codec ID : S_HDMV/PGS

  114. Codec ID/Info : Picture based subtitle format used on BDs/HD-DVDs

  115. Duration : 1 h 24 min

  116. Bit rate : 52.3 kb/s

  117. Count of elements : 3034

  118. Stream size : 31.5 MiB (1%)

  119. Language : English

  120. Default : No

  121. Forced : No


  122. Menu

  123. 00:00:00.000 : en:绗?01 绔?

  124. 00:05:12.771 : en:绗?02 绔?

  125. 00:08:44.899 : en:绗?03 绔?

  126. 00:12:51.729 : en:绗?04 绔?

  127. 00:18:25.813 : en:绗?05 绔?

  128. 00:22:58.836 : en:绗?06 绔?

  129. 00:27:36.405 : en:绗?07 绔?

  130. 00:30:34.583 : en:绗?08 绔?

  131. 00:34:23.353 : en:绗?09 绔?

  132. 00:38:27.138 : en:绗?10 绔?

  133. 00:41:13.096 : en:绗?11 绔?

  134. 00:46:19.276 : en:绗?12 绔?

  135. 00:50:12.426 : en:绗?13 绔?

  136. 00:54:22.926 : en:绗?14 绔?

  137. 00:59:22.726 : en:绗?15 绔?

  138. 01:03:39.274 : en:绗?16 绔?

  139. 01:06:25.523 : en:绗?17 绔?

  140. 01:10:18.297 : en:绗?18 绔?

  141. 01:15:41.829 : en:绗?19 绔?

  142. 01:21:19.917 : en:绗?20 绔?


复制代码




文件下载


除非特别注明,本文『魔发精灵2[中文字幕].Trolls.World.Tour.2020.BluRay.1080p.TrueHD7.1.x265.10bit-DreamHD 5.37GB』来源于互联网机器人自动抓取,非本站原创。 浮游电影网不对本文拥有版权,如有侵犯,请联系邮箱:fuyouu#yandex.com[#换成@]投诉。我们会在15个工作日内删除。 但烦请转载时请标明出处:“本文转载于『浮游电影网』,原文地址:https://www.fuyouu.com/22942.html

评论吧骚年!

发表你的见解   

昵称*

E-mail*(建议输入,以便收到博主回复的提示邮件)

验证码*

您可以使用eMule或eMule Mod(Windows)、aMule(Win、Linux、Mac)等软件下载eD2k链接。。
eMule收藏集(.emulecollection)文件是您选中的所有链接的列表文件。eMule可以直接下载它们。
按住SHIFT键选择可以选中多个选择框。
可用文件名和大小选择器来选择文件。
文件名选择器帮您根据文件名称或后缀来选择文件。不分大小写。
符号使用:
和:空格( )、+
不包含:-
或:|
转义:一对英文引号("");
匹配开头:^
匹配结尾:$
例如:
选中所有名称中包含有“eMule”或“0.49c”字眼,但不包含有“exe”字眼的:emule|0.49c -exe
选中所有名称的开头是“eMule”,结尾是“0.49c”的:^emule 0.49c$
选中所有名称中带有“eMule 0.49c”的(必须是“eMule 0.49c”,中间没有别的字符,不能是“eMule fake 0.49c”),需要转义:"emule 0.49c"
大小选择器帮您根据文件大小选择文件。