当前位置: 首页 >> 港台电影 >> 剑花烟雨江南[国语配音/中文字幕].To.Kill.with.Intrigue.1977.Bluray.1080p.TrueHD5.1.x265.10bit-DreamHD 7.27GB >> 正文

剑花烟雨江南[国语配音/中文字幕].To.Kill.with.Intrigue.1977.Bluray.1080p.TrueHD5.1.x265.10bit-DreamHD 7.27GB

2022年12月25日 15:53:01     电影发布:来源于网络     电影分类:港台电影     评论(0)    

◎标 题 剑花烟雨江南

◎译 名 劍·花·煙雨江南 / To Kill with Intrigue

◎片 名 劍花煙雨江南

◎年 代 1977

◎产 地 中国香港

◎类 别 剧情 / 动作

◎语 言 汉语普通话

◎上映日期 1977-07-22(中国香港)

◎IMDb评分 5.3/10 (1248人评价)

◎IMDb链接 https://www.imdb.com/title/tt0076227/

◎豆瓣评分 5.7/10 (1446人评价)

◎豆瓣链接 https://movie.douban.com/subject/1307832/

◎片 长 106分钟

◎导 演 罗维 Wei Lo

徐学良 Hsueh Liang Hsu

◎编 剧 古龙 Lung Ku

◎演 员 成龙 Jackie Chan

陈慧楼 Hui Lou Chen

徐枫 Feng Hsu

马骥 Kei Ma

佟林 Lin Tung

杜伟和 Wei Ho Tu

茅敬顺 Ching-Shun Mao

王珏 Jue Wang

江青霞 Ching-hsia Chiang

李文泰 Wen Tai Li

陈勋奇 Frankie Chan

周瑾 Zhou Chin

◎简 介

剧十五年前,奇峯山庄庄主曾利用做寿之际协同各路武林高手围剿人面桃花蜂。如今庄主年逾六旬,销声匿迹多年的人面桃花蜂又开始重出江湖。老庄主知道人面桃花蜂很有可能在自己的六十大寿上出现,于是将来宾和下人全部赶走,决定独自面对。少庄主小雷和丫环纤纤感情要好,为了不连累她并为雷家留 下骨肉, 小雷一改往日常态,将纤纤气走。同时小雷托付好朋友金川代为照顾纤纤,他自己要和奇峯山庄共存亡。

  1. ##### MediaInfo ######

  2. General

  3. Unique ID : 219382761384059240742922743840234065874 (0xA50B953BC3D8D407586A73EE7CACCFD2)

  4. Complete name : To.Kill.with.Intrigue.1977.Bluray.1080p.TrueHD5.1.x265.10bit-DreamHD.mkv

  5. Format : Matroska

  6. Format version : Version 4

  7. File size : 7.26 GiB

  8. Duration : 1 h 47 min

  9. Overall bit rate mode : Variable

  10. Overall bit rate : 9 704 kb/s

  11. Encoded date : UTC 2022-08-13 23:37:30

  12. Writing application : mkvmerge v62.0.0 ('Apollo') 64-bit

  13. Writing library : libebml v1.4.2 + libmatroska v1.6.4


  14. Video

  15. ID : 1

  16. Format : HEVC

  17. Format/Info : High Efficiency Video Coding

  18. Format profile : Main [email protected]@Main

  19. Codec ID : V_MPEGH/ISO/HEVC

  20. Duration : 1 h 47 min

  21. Bit rate : 5 409 kb/s

  22. Width : 1 920 pixels

  23. Height : 820 pixels

  24. Display aspect ratio : 2.35:1

  25. Frame rate mode : Constant

  26. Frame rate : 24.000 FPS

  27. Color space : YUV

  28. Chroma subsampling : 4:2:0

  29. Bit depth : 10 bits

  30. Bits/(Pixel*Frame) : 0.143

  31. Stream size : 4.05 GiB (56%)

  32. Writing library : x265 3.5+10-82786fccc:[Windows][MSVC 1929][64 bit] 10bit

  33. Encoding settings : cpuid=1111039 / frame-threads=5 / numa-pools=36,36 / wpp / no-pmode / no-pme / no-psnr / no-ssim / log-level=2 / input-csp=1 / input-res=1920x820 / interlace=0 / total-frames=0 / level-idc=0 / high-tier=1 / uhd-bd=0 / ref=6 / no-allow-non-conformance / repeat-headers / annexb / no-aud / no-eob / no-eos / no-hrd / info / hash=0 / no-temporal-layers / no-open-gop / min-keyint=24 / keyint=250 / gop-lookahead=0 / bframes=8 / b-adapt=2 / b-pyramid / bframe-bias=0 / rc-lookahead=24 / lookahead-slices=5 / scenecut=40 / hist-scenecut=0 / radl=0 / no-splice / no-intra-refresh / ctu=64 / min-cu-size=8 / no-rect / no-amp / max-tu-size=32 / tu-inter-depth=1 / tu-intra-depth=1 / limit-tu=0 / rdoq-level=0 / dynamic-rd=0.00 / no-ssim-rd / signhide / no-tskip / nr-intra=0 / nr-inter=0 / no-constrained-intra / no-strong-intra-smoothing / max-merge=3 / limit-refs=1 / no-limit-modes / me=2 / subme=7 / merange=48 / temporal-mvp / no-frame-dup / no-hme / weightp / weightb / no-analyze-src-pics / deblock=0:0 / sao / no-sao-non-deblock / rd=4 / selective-sao=4 / early-skip / rskip / no-fast-intra / no-tskip-fast / no-cu-lossless / b-intra / no-splitrd-skip / rdpenalty=0 / psy-rd=2.00 / psy-rdoq=0.00 / no-rd-refine / no-lossless / cbqpoffs=0 / crqpoffs=0 / rc=crf / crf=15.0 / qcomp=0.60 / qpstep=4 / stats-write=0 / stats-read=0 / ipratio=1.40 / pbratio=1.30 / aq-mode=3 / aq-strength=1.00 / cutree / zone-count=0 / no-strict-cbr / qg-size=32 / no-rc-grain / qpmax=69 / qpmin=0 / no-const-vbv / sar=0 / overscan=0 / videoformat=5 / range=0 / colorprim=2 / transfer=2 / colormatrix=2 / chromaloc=0 / display-window=0 / cll=0,0 / min-luma=0 / max-luma=1023 / log2-max-poc-lsb=8 / vui-timing-info / vui-hrd-info / slices=1 / no-opt-qp-pps / no-opt-ref-list-length-pps / no-multi-pass-opt-rps / scenecut-bias=0.05 / hist-threshold=0.03 / no-opt-cu-delta-qp / aq-motion / no-hdr10 / no-hdr10-opt / no-dhdr10-opt / no-idr-recovery-sei / analysis-reuse-level=0 / analysis-save-reuse-level=0 / analysis-load-reuse-level=0 / scale-factor=0 / refine-intra=0 / refine-inter=0 / refine-mv=1 / refine-ctu-distortion=0 / no-limit-sao / ctu-info=0 / no-lowpass-dct / refine-analysis-type=0 / copy-pic=1 / max-ausize-factor=1.0 / no-dynamic-refine / no-single-sei / no-hevc-aq / no-svt / no-field / qp-adaptation-range=1.00 / scenecut-aware-qp=0conformance-window-offsets / right=0 / bottom=0 / decoder-max-rate=0 / no-vbv-live-multi-pass

  34. Default : Yes

  35. Forced : No


  36. Audio #1

  37. ID : 2

  38. Format : MLP FBA

  39. Format/Info : Meridian Lossless Packing FBA

  40. Commercial name : Dolby TrueHD

  41. Codec ID : A_TRUEHD

  42. Duration : 1 h 47 min

  43. Bit rate mode : Variable

  44. Bit rate : 2 664 kb/s

  45. Maximum bit rate : 3 648 kb/s

  46. Channel(s) : 6 channels

  47. Channel layout : L R C LFE Ls Rs

  48. Sampling rate : 96.0 kHz

  49. Frame rate : 1 200.000 FPS (80 SPF)

  50. Compression mode : Lossless

  51. Stream size : 1.99 GiB (27%)

  52. Language : Chinese

  53. Default : Yes

  54. Forced : No


  55. Audio #2

  56. ID : 3

  57. Format : PCM

  58. Format settings : Little / Signed

  59. Codec ID : A_PCM/INT/LIT

  60. Duration : 1 h 47 min

  61. Bit rate mode : Constant

  62. Bit rate : 1 536 kb/s

  63. Channel(s) : 2 channels

  64. Sampling rate : 48.0 kHz

  65. Frame rate : 25.000 FPS (1920 SPF)

  66. Bit depth : 16 bits

  67. Stream size : 1.15 GiB (16%)

  68. Language : Chinese

  69. Default : Yes

  70. Forced : No


  71. Text #1

  72. ID : 4

  73. Format : PGS

  74. Muxing mode : zlib

  75. Codec ID : S_HDMV/PGS

  76. Codec ID/Info : Picture based subtitle format used on BDs/HD-DVDs

  77. Duration : 1 h 45 min

  78. Bit rate : 17.1 kb/s

  79. Count of elements : 1536

  80. Stream size : 12.9 MiB (0%)

  81. Language : Chinese

  82. Default : Yes

  83. Forced : No


  84. Text #2

  85. ID : 5

  86. Format : PGS

  87. Muxing mode : zlib

  88. Codec ID : S_HDMV/PGS

  89. Codec ID/Info : Picture based subtitle format used on BDs/HD-DVDs

  90. Duration : 1 h 45 min

  91. Bit rate : 18.5 kb/s

  92. Count of elements : 1536

  93. Stream size : 13.9 MiB (0%)

  94. Language : Chinese

  95. Default : Yes

  96. Forced : No


  97. Text #3

  98. ID : 6

  99. Format : PGS

  100. Muxing mode : zlib

  101. Codec ID : S_HDMV/PGS

  102. Codec ID/Info : Picture based subtitle format used on BDs/HD-DVDs

  103. Duration : 1 h 45 min

  104. Bit rate : 19.1 kb/s

  105. Count of elements : 1440

  106. Stream size : 14.4 MiB (0%)

  107. Language : English

  108. Default : Yes

  109. Forced : No


  110. Menu

  111. 00:00:00.000 : en:第 01 章

  112. 00:09:31.833 : en:第 02 章

  113. 00:20:07.500 : en:第 03 章

  114. 00:26:50.750 : en:第 04 章

  115. 00:33:38.167 : en:第 05 章

  116. 00:41:05.208 : en:第 06 章

  117. 00:46:21.042 : en:第 07 章

  118. 00:56:05.000 : en:第 08 章

  119. 01:03:27.333 : en:第 09 章

  120. 01:17:55.333 : en:第 10 章

  121. 01:24:48.083 : en:第 11 章

  122. 01:33:37.625 : en:第 12 章


复制代码




文件下载


除非特别注明,本文『剑花烟雨江南[国语配音/中文字幕].To.Kill.with.Intrigue.1977.Bluray.1080p.TrueHD5.1.x265.10bit-DreamHD 7.27GB』来源于互联网机器人自动抓取,非本站原创。 浮游电影网不对本文拥有版权,如有侵犯,请联系邮箱:fuyouu#yandex.com[#换成@]投诉。我们会在15个工作日内删除。 但烦请转载时请标明出处:“本文转载于『浮游电影网』,原文地址:https://www.fuyouu.com/22941.html

评论吧骚年!

发表你的见解   

昵称*

E-mail*(建议输入,以便收到博主回复的提示邮件)

验证码*

您可以使用eMule或eMule Mod(Windows)、aMule(Win、Linux、Mac)等软件下载eD2k链接。。
eMule收藏集(.emulecollection)文件是您选中的所有链接的列表文件。eMule可以直接下载它们。
按住SHIFT键选择可以选中多个选择框。
可用文件名和大小选择器来选择文件。
文件名选择器帮您根据文件名称或后缀来选择文件。不分大小写。
符号使用:
和:空格( )、+
不包含:-
或:|
转义:一对英文引号("");
匹配开头:^
匹配结尾:$
例如:
选中所有名称中包含有“eMule”或“0.49c”字眼,但不包含有“exe”字眼的:emule|0.49c -exe
选中所有名称的开头是“eMule”,结尾是“0.49c”的:^emule 0.49c$
选中所有名称中带有“eMule 0.49c”的(必须是“eMule 0.49c”,中间没有别的字符,不能是“eMule fake 0.49c”),需要转义:"emule 0.49c"
大小选择器帮您根据文件大小选择文件。