当前位置: 首页 >> 港台电影 >> 顺流逆流[国粤多音轨/简繁英字幕].Time.and.Tide.2000.BluRay.1080p.DTS-HD.MA.5.1.x265.10bit-DreamHD 10.60GB >> 正文

顺流逆流[国粤多音轨/简繁英字幕].Time.and.Tide.2000.BluRay.1080p.DTS-HD.MA.5.1.x265.10bit-DreamHD 10.60GB

2022年12月25日 15:52:29     电影发布:来源于网络     电影分类:港台电影     评论(0)    

◎标 题 顺流逆流

◎译 名 Time and Tide

◎片 名 順流逆流

◎年 代 2000

◎产 地 中国香港 / 中国大陆

◎类 别 剧情 / 动作 / 惊悚 / 犯罪

◎语 言 汉语普通话 / 福建话 / 粤语 / 英语 / 葡萄牙语

◎上映日期 2000-10-19(中国香港) / 2000-09-05(威尼斯电影节)

◎IMDb评分 6.7/10 (4938人评价)

◎IMDb链接 https://www.imdb.com/title/tt0251433/

◎豆瓣评分 7.6/10 (16110人评价)

◎豆瓣链接 https://movie.douban.com/subject/1308035/

◎片 长 113 分钟

◎导 演 徐克 Hark Tsui

◎编 剧 许安 Koan Hui

徐克 Hark Tsui

◎演 员 谢霆锋 Nicholas Tse

伍佰 Wu Bai

卢巧音 Candy Lo

徐子淇 Cathy Tsui

黄秋生 Anthony Wong Chau-Sang

恭硕良 Jun Kung

高捷 Jack Kao

黄定邦 Wong Ting Pong

谷垣健治 Kenji Tanigaki

徐克 Hark Tsui

蔡业信 Raven Choi Yip-San

李耀明 Joe Lee Yiu-ming

萧洪 Siu Hung

徐克 Hark Tsui

韦启良 Yee-Leung Wai

邱礼涛 Herman Yau

麦子善 Marco Mak

黄庆勋 Danny Wong

许安 Koan Hui

霍永富 Marcus Fox

余家禄 Tomy Yu Kar Luk

◎简 介

年轻人阿政(谢霆锋饰)总想着能有不一样的生活,向往去南美。一次偶然,他邂逅卧底女警察(徐子淇饰),当上了“准爸爸”。为了筹钱抚养女方肚中的孩子,阿杰辞掉了酒吧招待的工作,跟随吉叔(黄秋生饰)做起了保镖。 阿杰(伍佰饰)多年来在南美担任雇佣兵,在经历枪林弹雨的战火生活后, 他想着洗手告别过去,回到香港娶了慧(卢巧音饰),她是香港有权势的黑社会老大的女儿。一次阿杰无意中结识了阿政。 而阿杰为了照顾妻子,独吞了钱财,昔日战友们很快追到香港,一场恶战在所难免。

  1. ##### MediaInfo ######

  2. General

  3. Unique ID : 84614717093217699295753512426916298353 (0x3FA833A52388F532D12E37BB204C3E71)

  4. Complete name : Time.and.Tide.2000.BluRay.1080p.DTS-HD.MA.5.1.x265.10bit-DreamHD.mkv

  5. Format : Matroska

  6. Format version : Version 4

  7. File size : 10.6 GiB

  8. Duration : 1 h 53 min

  9. Overall bit rate mode : Variable

  10. Overall bit rate : 13.4 Mb/s

  11. Encoded date : UTC 2019-05-04 01:02:07

  12. Writing application : mkvmerge v30.1.0 ('Forever And More') 64-bit

  13. Writing library : libebml v1.3.6 + libmatroska v1.4.9


  14. Video

  15. ID : 1

  16. Format : HEVC

  17. Format/Info : High Efficiency Video Coding

  18. Format profile : Main [email protected]@Main

  19. Codec ID : V_MPEGH/ISO/HEVC

  20. Duration : 1 h 53 min

  21. Bit rate : 9 492 kb/s

  22. Width : 1 920 pixels

  23. Height : 816 pixels

  24. Display aspect ratio : 2.35:1

  25. Frame rate mode : Constant

  26. Frame rate : 23.976 (23976/1000) FPS

  27. Color space : YUV

  28. Chroma subsampling : 4:2:0

  29. Bit depth : 10 bits

  30. Bits/(Pixel*Frame) : 0.253

  31. Stream size : 7.51 GiB (71%)

  32. Title : Time.and.Tide.2000.BluRay.1080p.DTS-HD.MA.5.1.x265.10bit-CHD

  33. Writing library : x265 2.7+15-b9f5b5d7bf95:[Windows][MSVC 1800][64 bit] 10bit

  34. Encoding settings : cpuid=1050111 / frame-threads=5 / numa-pools=40 / wpp / no-pmode / no-pme / no-psnr / no-ssim / log-level=2 / input-csp=1 / input-res=1920x816 / interlace=0 / total-frames=0 / level-idc=0 / high-tier=1 / uhd-bd=0 / ref=6 / no-allow-non-conformance / repeat-headers / annexb / no-aud / no-hrd / info / hash=0 / no-temporal-layers / no-open-gop / min-keyint=23 / keyint=250 / gop-lookahead=0 / bframes=8 / b-adapt=2 / b-pyramid / bframe-bias=0 / rc-lookahead=24 / lookahead-slices=5 / scenecut=40 / radl=0 / no-intra-refresh / ctu=64 / min-cu-size=8 / no-rect / no-amp / max-tu-size=32 / tu-inter-depth=1 / tu-intra-depth=1 / limit-tu=0 / rdoq-level=0 / dynamic-rd=0.00 / no-ssim-rd / signhide / no-tskip / nr-intra=0 / nr-inter=0 / no-constrained-intra / no-strong-intra-smoothing / max-merge=2 / limit-refs=3 / no-limit-modes / me=2 / subme=7 / merange=48 / temporal-mvp / weightp / weightb / no-analyze-src-pics / deblock=0:0 / sao / no-sao-non-deblock / rd=4 / no-early-skip / rskip / no-fast-intra / no-tskip-fast / no-cu-lossless / no-b-intra / no-splitrd-skip / rdpenalty=0 / psy-rd=2.00 / psy-rdoq=0.00 / no-rd-refine / no-lossless / cbqpoffs=0 / crqpoffs=0 / rc=crf / crf=20.0 / qcomp=0.60 / qpstep=4 / stats-write=0 / stats-read=0 / ipratio=1.40 / pbratio=1.30 / aq-mode=3 / aq-strength=1.00 / cutree / zone-count=0 / no-strict-cbr / qg-size=32 / no-rc-grain / qpmax=69 / qpmin=0 / no-const-vbv / sar=0 / overscan=0 / videoformat=5 / range=0 / colorprim=2 / transfer=2 / colormatrix=2 / chromaloc=0 / display-window=0 / max-cll=0,0 / min-luma=0 / max-luma=1023 / log2-max-poc-lsb=8 / vui-timing-info / vui-hrd-info / slices=1 / no-opt-qp-pps / no-opt-ref-list-length-pps / no-multi-pass-opt-rps / scenecut-bias=0.05 / no-opt-cu-delta-qp / aq-motion / no-hdr / no-hdr-opt / no-dhdr10-opt / no-idr-recovery-sei / analysis-reuse-level=5 / scale-factor=0 / refine-intra=0 / refine-inter=0 / refine-mv=0 / no-limit-sao / ctu-info=0 / no-lowpass-dct / refine-mv-type=0 / copy-pic=1 / max-ausize-factor=1.0 / no-dynamic-refine

  35. Language : Chinese

  36. Default : Yes

  37. Forced : No


  38. Audio #1

  39. ID : 2

  40. Format : DTS XLL

  41. Format/Info : Digital Theater Systems

  42. Commercial name : DTS-HD Master Audio

  43. Codec ID : A_DTS

  44. Duration : 1 h 53 min

  45. Bit rate mode : Variable

  46. Bit rate : 3 636 kb/s

  47. Channel(s) : 6 channels

  48. Channel layout : C L R Ls Rs LFE

  49. Sampling rate : 48.0 kHz

  50. Frame rate : 93.750 FPS (512 SPF)

  51. Bit depth : 24 bits

  52. Compression mode : Lossless

  53. Stream size : 2.88 GiB (27%)

  54. Title : Cantonese DTS-HDMA5.1 @ 3636 Kbps

  55. Language : Chinese

  56. Default : Yes

  57. Forced : No


  58. Audio #2

  59. ID : 3

  60. Format : AC-3

  61. Format/Info : Audio Coding 3

  62. Commercial name : Dolby Digital

  63. Codec ID : A_AC3

  64. Duration : 1 h 53 min

  65. Bit rate mode : Constant

  66. Bit rate : 224 kb/s

  67. Channel(s) : 2 channels

  68. Channel layout : L R

  69. Sampling rate : 48.0 kHz

  70. Frame rate : 31.250 FPS (1536 SPF)

  71. Compression mode : Lossy

  72. Stream size : 182 MiB (2%)

  73. Title : Mandarin DD5.1 @ 448 Kbps

  74. Language : Chinese

  75. Service kind : Complete Main

  76. Default : No

  77. Forced : No


  78. Text #1

  79. ID : 4

  80. Format : PGS

  81. Muxing mode : zlib

  82. Codec ID : S_HDMV/PGS

  83. Codec ID/Info : Picture based subtitle format used on BDs/HD-DVDs

  84. Duration : 1 h 49 min

  85. Bit rate : 20.4 kb/s

  86. Count of elements : 2074

  87. Stream size : 15.9 MiB (0%)

  88. Title : CHT

  89. Language : Chinese

  90. Default : Yes

  91. Forced : No


  92. Text #2

  93. ID : 5

  94. Format : PGS

  95. Muxing mode : zlib

  96. Codec ID : S_HDMV/PGS

  97. Codec ID/Info : Picture based subtitle format used on BDs/HD-DVDs

  98. Duration : 1 h 49 min

  99. Bit rate : 19.4 kb/s

  100. Count of elements : 2074

  101. Stream size : 15.2 MiB (0%)

  102. Title : CHS

  103. Language : Chinese

  104. Default : No

  105. Forced : No


  106. Text #3

  107. ID : 6

  108. Format : PGS

  109. Muxing mode : zlib

  110. Codec ID : S_HDMV/PGS

  111. Codec ID/Info : Picture based subtitle format used on BDs/HD-DVDs

  112. Duration : 1 h 50 min

  113. Bit rate : 21.6 kb/s

  114. Count of elements : 2076

  115. Stream size : 17.1 MiB (0%)

  116. Title : ENG

  117. Language : English

  118. Default : No

  119. Forced : No


复制代码




文件下载


除非特别注明,本文『顺流逆流[国粤多音轨/简繁英字幕].Time.and.Tide.2000.BluRay.1080p.DTS-HD.MA.5.1.x265.10bit-DreamHD 10.60GB』来源于互联网机器人自动抓取,非本站原创。 浮游电影网不对本文拥有版权,如有侵犯,请联系邮箱:fuyouu#yandex.com[#换成@]投诉。我们会在15个工作日内删除。 但烦请转载时请标明出处:“本文转载于『浮游电影网』,原文地址:https://www.fuyouu.com/22940.html

评论吧骚年!

发表你的见解   

昵称*

E-mail*(建议输入,以便收到博主回复的提示邮件)

验证码*

您可以使用eMule或eMule Mod(Windows)、aMule(Win、Linux、Mac)等软件下载eD2k链接。。
eMule收藏集(.emulecollection)文件是您选中的所有链接的列表文件。eMule可以直接下载它们。
按住SHIFT键选择可以选中多个选择框。
可用文件名和大小选择器来选择文件。
文件名选择器帮您根据文件名称或后缀来选择文件。不分大小写。
符号使用:
和:空格( )、+
不包含:-
或:|
转义:一对英文引号("");
匹配开头:^
匹配结尾:$
例如:
选中所有名称中包含有“eMule”或“0.49c”字眼,但不包含有“exe”字眼的:emule|0.49c -exe
选中所有名称的开头是“eMule”,结尾是“0.49c”的:^emule 0.49c$
选中所有名称中带有“eMule 0.49c”的(必须是“eMule 0.49c”,中间没有别的字符,不能是“eMule fake 0.49c”),需要转义:"emule 0.49c"
大小选择器帮您根据文件大小选择文件。