当前位置: 首页 >> 港台电影 >> 千王之王2000[国语配音/中文字幕].The.Tricky.Master.1999.BluRay.1080p.TrueHD5.1.x265.10bit-DreamHD 5.80GB >> 正文

千王之王2000[国语配音/中文字幕].The.Tricky.Master.1999.BluRay.1080p.TrueHD5.1.x265.10bit-DreamHD 5.80GB

2022年12月25日 15:51:57     电影发布:来源于网络     电影分类:港台电影     评论(0)    

◎标 题 千王之王2000

◎译 名 The Tricky Master

◎年 代 1999

◎产 地 中国香港

◎类 别 喜剧

◎语 言 粤语 / 汉语普通话

◎上映日期 1999-08-05(中国香港)

◎IMDb评分 5.9/10 (1647人评价)

◎IMDb链接 https://www.imdb.com/title/tt0212864/

◎豆瓣评分 6.9/10 (114636人评价)

◎豆瓣链接 https://movie.douban.com/subject/1304677/

◎片 长 91 分钟

◎导 演 王晶 Jing Wong

◎编 剧 王晶 Jing Wong

◎演 员 周星驰 Stephen Chow

张家辉 Nick Cheung

王晶 Jing Wong

吴君如 Sandra Ng

林熙蕾 Kelly Lin

关秀媚 Suki Kwan

卢惠光 Ken Lo

叶竞生 Bobby Yip Kin Sang

吴志雄 Chi Hung Ng

李兆基 Siu-Kei Lee

刘以达 Tats Lau

罗家英 Kar-Ying Law

胡枫 Fung Woo

曾近荣 Kan-Wing Tsang

施念慈 Celia Sie

苑琼丹 King-Tan Yuen

张达明 Tat-Ming Cheung

李健仁 Kin-Yan Lee

田启文 Kai Man Tin

梁焯满 Sammuel Leung

兰茜 Lan Sai

段伟伦 William Duan

谭天宝 Tin-Bo Tam

曾德华 Andy Tsang

王晶 Jing Wong

李兆基 Siu-Kei Lee

刘宝贤 Bowie Lau

麦子善 Marco Mak

赵崇邦 Sung Pong Choo

利碧君 Pik Kwan Lee

◎简 介

梁宽(张家辉饰)乃一低级警务人员,多次担任卧底小角色。郁郁不得志之时,长官忽派他调查大老千法拉利(王晶饰),宽遂找到自信。一日宽陪女友pizza(关秀媚饰)参加姐姐(吴君如饰)为姐夫大老千黄师虎(周星驰饰)短暂出狱期间举办的宴会。宽在宴会上态度嚣张,终被黄师虎整蛊,于是怀恨在心。

宽卧底于法拉利周围,在沙滩上偶遇美女初恋(林熙蕾饰),被其美色所迷。宽自认得到法拉利信任,不料,还没找到犯罪证据,反而先落入初恋的美人计陷阱中,差点丢了工作。Pizza不计前嫌,与宽商量找姐夫帮忙,却不料姐夫早已为宽设下了无数难题......

  1. ##### MediaInfo ######

  2. General

  3. Unique ID : 205297228741473105020962753397564167448 (0x9A72CEDB4512C3095643A5B3A08CD518)

  4. Complete name : The.Tricky.Master.1999.BluRay.1080p.TrueHD5.1.x265.10bit-DreamHD.mkv

  5. Format : Matroska

  6. Format version : Version 4

  7. File size : 5.80 GiB

  8. Duration : 1 h 33 min

  9. Overall bit rate mode : Variable

  10. Overall bit rate : 8 917 kb/s

  11. Encoded date : UTC 2020-07-18 20:20:46

  12. Writing application : mkvmerge v48.0.0 ('Fortress Around Your Heart') 64-bit

  13. Writing library : libebml v1.4.0 + libmatroska v1.6.0


  14. Video

  15. ID : 1

  16. Format : HEVC

  17. Format/Info : High Efficiency Video Coding

  18. Format profile : Main [email protected]@Main

  19. Codec ID : V_MPEGH/ISO/HEVC

  20. Duration : 1 h 33 min

  21. Bit rate : 4 742 kb/s

  22. Width : 1 920 pixels

  23. Height : 1 080 pixels

  24. Display aspect ratio : 16:9

  25. Frame rate mode : Constant

  26. Frame rate : 24.000 FPS

  27. Color space : YUV

  28. Chroma subsampling : 4:2:0

  29. Bit depth : 10 bits

  30. Bits/(Pixel*Frame) : 0.095

  31. Stream size : 3.08 GiB (53%)

  32. Writing library : x265 3.2+7-gb291a1c95+26:[Windows][MSVC 1916][64 bit] Yuuki 10bit

  33. Encoding settings : rc=crf / crf=15.0000 / qcomp=0.60 / qpstep=4 / stats-write=0 / stats-read=0 / no-lossless / no-cu-lossless / aq-mode=3 / aq-strength=1.00 / cbqpoffs=0 / crqpoffs=0 / ipratio=1.40 / pbratio=1.30 / psy-rd=2.00 / psy-rdoq=0.00 / deblock=0:0 / ref=6 / limit-refs=1 / no-limit-modes / bframes=8 / b-adapt=2 / bframe-bias=0 / b-pyramid / b-intra / weightp / weightb / min-keyint=24 / max-keyint=250 / rc-lookahead=24 / gop-lookahead=0 / scenecut=40 / radl=0 / max-cu-size=64 / min-cu-size=8 / me=2 / subme=7 / merange=48 / rdoq-level=0 / rd=4 / rdpenalty=0 / dynamic-rd=0.00 / no-rd-refine / ----- / cutree / sao / no-rect / no-amp / no-open-gop / wpp / no-pmode / no-pme / no-psnr / no-ssim / nr-intra=0 / nr-inter=0 / no-constrained-intra / no-strong-intra-smoothing / max-tu-size=32 / tu-inter-depth=1 / tu-intra-depth=1 / limit-tu=0 / qg-size=32 / qpmax=69 / qpmin=0 / ----- / cpuid=1111039 / frame-threads=5 / numa-pools=36,36 / log-level=2 / input-csp=1 / input-res=1920x1080 / interlace=0 / level-idc=0 / high-tier=1 / uhd-bd=0 / no-allow-non-conformance / repeat-headers / no-aud / no-hrd / info / hash=0 / no-temporal-layers / lookahead-slices=6 / no-splice / no-intra-refresh / no-ssim-rd / signhide / no-tskip / max-merge=3 / temporal-mvp / no-hme / no-analyze-src-pics / no-sao-non-deblock / selective-sao=4 / early-skip / rskip / no-fast-intra / no-tskip-fast / no-splitrd-skip / zone-count=0 / no-strict-cbr / no-rc-grain / no-const-vbv / sar=0 / overscan=0 / videoformat=5 / range=0 / colorprim=2 / transfer=2 / colormatrix=2 / chromaloc=0 / display-window=0 / cll=0,0 / min-luma=0 / max-luma=1023 / log2-max-poc-lsb=8 / vui-timing-info / vui-hrd-info / slices=1 / no-opt-qp-pps / no-opt-ref-list-length-pps / no-multi-pass-opt-rps / scenecut-bias=0.05 / no-opt-cu-delta-qp / aq-motion / no-hdr / no-hdr-opt / no-dhdr10-opt / no-idr-recovery-sei / analysis-reuse-level=5 / scale-factor=0 / refine-intra=0 / refine-inter=0 / refine-mv=1 / refine-ctu-distortion=0 / no-limit-sao / ctu-info=0 / no-lowpass-dct / refine-analysis-type=0 / copy-pic=1 / max-ausize-factor=1.0 / no-dynamic-refine / no-single-sei / hevc-aq / no-svt / no-field / qp-adaptation-range=1.00

  34. Default : Yes

  35. Forced : No


  36. Audio #1

  37. ID : 2

  38. Format : MLP FBA

  39. Format/Info : Meridian Lossless Packing FBA

  40. Commercial name : Dolby TrueHD

  41. Codec ID : A_TRUEHD

  42. Duration : 1 h 33 min

  43. Bit rate mode : Variable

  44. Bit rate : 1 986 kb/s

  45. Maximum bit rate : 2 238 kb/s

  46. Channel(s) : 6 channels

  47. Channel layout : L R C LFE Ls Rs

  48. Sampling rate : 96.0 kHz

  49. Frame rate : 1 200.000 FPS (80 SPF)

  50. Compression mode : Lossless

  51. Stream size : 1.29 GiB (22%)

  52. Default : Yes

  53. Forced : No


  54. Audio #2

  55. ID : 3

  56. Format : MLP FBA

  57. Format/Info : Meridian Lossless Packing FBA

  58. Commercial name : Dolby TrueHD

  59. Codec ID : A_TRUEHD

  60. Duration : 1 h 33 min

  61. Bit rate mode : Variable

  62. Bit rate : 2 000 kb/s

  63. Maximum bit rate : 2 298 kb/s

  64. Channel(s) : 6 channels

  65. Channel layout : L R C LFE Ls Rs

  66. Sampling rate : 96.0 kHz

  67. Frame rate : 1 200.000 FPS (80 SPF)

  68. Compression mode : Lossless

  69. Stream size : 1.30 GiB (22%)

  70. Default : No

  71. Forced : No


  72. Text #1

  73. ID : 4

  74. Format : PGS

  75. Muxing mode : zlib

  76. Codec ID : S_HDMV/PGS

  77. Codec ID/Info : Picture based subtitle format used on BDs/HD-DVDs

  78. Duration : 1 h 30 min

  79. Bit rate : 35.4 kb/s

  80. Count of elements : 2117

  81. Stream size : 22.9 MiB (0%)

  82. Language : Chinese

  83. Default : Yes

  84. Forced : No


  85. Text #2

  86. ID : 5

  87. Format : PGS

  88. Muxing mode : zlib

  89. Codec ID : S_HDMV/PGS

  90. Codec ID/Info : Picture based subtitle format used on BDs/HD-DVDs

  91. Duration : 1 h 30 min

  92. Bit rate : 38.1 kb/s

  93. Count of elements : 2117

  94. Stream size : 24.6 MiB (0%)

  95. Language : Chinese

  96. Default : No

  97. Forced : No


  98. Text #3

  99. ID : 6

  100. Format : PGS

  101. Muxing mode : zlib

  102. Codec ID : S_HDMV/PGS

  103. Codec ID/Info : Picture based subtitle format used on BDs/HD-DVDs

  104. Duration : 1 h 30 min

  105. Bit rate : 40.0 kb/s

  106. Count of elements : 2117

  107. Stream size : 25.8 MiB (0%)

  108. Language : English

  109. Default : No

  110. Forced : No


  111. Menu

  112. 00:00:00.000 : en:绗?01 绔?

  113. 00:09:05.375 : en:绗?02 绔?

  114. 00:15:55.792 : en:绗?03 绔?

  115. 00:22:23.167 : en:绗?04 绔?

  116. 00:31:11.000 : en:绗?05 绔?

  117. 00:39:25.083 : en:绗?06 绔?

  118. 00:47:18.458 : en:绗?07 绔?

  119. 00:53:56.208 : en:绗?08 绔?

  120. 01:01:17.417 : en:绗?09 绔?

  121. 01:12:55.542 : en:绗?10 绔?

  122. 01:21:26.625 : en:绗?11 绔?

  123. 01:30:28.167 : en:绗?12 绔?


复制代码





文件下载


除非特别注明,本文『千王之王2000[国语配音/中文字幕].The.Tricky.Master.1999.BluRay.1080p.TrueHD5.1.x265.10bit-DreamHD 5.80GB』来源于互联网机器人自动抓取,非本站原创。 浮游电影网不对本文拥有版权,如有侵犯,请联系邮箱:fuyouu#yandex.com[#换成@]投诉。我们会在15个工作日内删除。 但烦请转载时请标明出处:“本文转载于『浮游电影网』,原文地址:https://www.fuyouu.com/22939.html

评论吧骚年!

发表你的见解   

昵称*

E-mail*(建议输入,以便收到博主回复的提示邮件)

验证码*

您可以使用eMule或eMule Mod(Windows)、aMule(Win、Linux、Mac)等软件下载eD2k链接。。
eMule收藏集(.emulecollection)文件是您选中的所有链接的列表文件。eMule可以直接下载它们。
按住SHIFT键选择可以选中多个选择框。
可用文件名和大小选择器来选择文件。
文件名选择器帮您根据文件名称或后缀来选择文件。不分大小写。
符号使用:
和:空格( )、+
不包含:-
或:|
转义:一对英文引号("");
匹配开头:^
匹配结尾:$
例如:
选中所有名称中包含有“eMule”或“0.49c”字眼,但不包含有“exe”字眼的:emule|0.49c -exe
选中所有名称的开头是“eMule”,结尾是“0.49c”的:^emule 0.49c$
选中所有名称中带有“eMule 0.49c”的(必须是“eMule 0.49c”,中间没有别的字符,不能是“eMule fake 0.49c”),需要转义:"emule 0.49c"
大小选择器帮您根据文件大小选择文件。