当前位置: 首页 >> 港台电影 >> 情圣[国粤多音轨/简繁英字幕].The.Magnificent.Scoundrels.1991.BluRay.1080p.LPCM2.0.x265.10bit-DreamHD 10.88GB >> 正文

情圣[国粤多音轨/简繁英字幕].The.Magnificent.Scoundrels.1991.BluRay.1080p.LPCM2.0.x265.10bit-DreamHD 10.88GB

2022年12月25日 15:51:23     电影发布:来源于网络     电影分类:港台电影     评论(0)    

◎标 题 情圣

◎译 名 笑情偿债(台) / The Magnificent Scoundrels

◎片 名 情聖

◎年 代 1991

◎产 地 中国香港

◎类 别 喜剧

◎语 言 粤语

◎上映日期 1991-10-10(中国香港)

◎IMDb评分 6.6/10 (1060人评价)

◎IMDb链接 https://www.imdb.com/title/tt0102737/

◎豆瓣评分 7.6/10 (100746人评价)

◎豆瓣链接 https://movie.douban.com/subject/1307747/

◎片 长 97分钟

◎导 演 李力持 Lik-Chi Lee

◎编 剧 李力持 Lik-Chi Lee

梁耀明 Yiu-ming Leung

◎演 员 周星驰 Stephen Chow

毛舜筠 Teresa Mo

恬妞 Niu Tien

叶子楣 Amy Yip

午马 Wu Ma

张耀扬 Roy Cheung

元华 Wah Yuen

朱咪咪 Mimi Chu

麦嘉 Karl Maka

吴君如 Sandra Ng

罗舜泉 Shun Chuen Law

杨健惠 Yeung Kin-Wai

梁克逊 Hak Shun Leung

罗树琪 Shu-Kei Law

元奎 Corey Yuen

黄一山 Gabriel Wong

李显明 Shin-Ming Lee

麦嘉 Karl Maka

李修贤 Danny Lee

林亚杜 Abdul Rumjohnn

关莉娜 Lee-na Kwan

罗舜泉 Shun Chuen Law

黄志明 Wong Chi-Ming

◎简 介

程胜(周星驰 饰)乃一游手好闲之徒,终日坑蒙拐骗,无恶不作。一日装瞎子行骗,遇遇女骗子(毛舜筠 饰)被追债的贵利工打手排骨(元华 饰)欺负,胜一时看不过眼出手相救,不料却被债务转嫁弄了自己一屁股债。另一方面。老江湖凌万蜂(午马 饰)同样欠下了贵利王(张耀扬饰)的债务,无力还清。他想办法找到自己的旧情人生萍姐(恬妞 饰)和妓女Apple(叶子楣 饰)合谋冒充一富户人家向一阔少诈骗。不料被骗的阔少正是胜所扮,他也想骗这一富户。阴差阳错的骗局,笑料百出……

  1. ##### MediaInfo ######

  2. General

  3. Unique ID : 227413632947093463485628389828065835529 (0xAB1645C58A362ADB624800B39B293A09)

  4. Complete name : The.Magnificent.Scoundrels.1991.BluRay.1080p.LPCM2.0.x265.10bit-DreamHD.mkv

  5. Format : Matroska

  6. Format version : Version 4

  7. File size : 10.9 GiB

  8. Duration : 1 h 37 min

  9. Overall bit rate : 16.0 Mb/s

  10. Encoded date : UTC 2020-04-30 11:52:49

  11. Writing application : mkvmerge v27.0.0 ('Metropolis') 64-bit

  12. Writing library : libebml v1.3.6 + libmatroska v1.4.9


  13. Video

  14. ID : 6

  15. Format : HEVC

  16. Format/Info : High Efficiency Video Coding

  17. Format profile : Main [email protected]@Main

  18. Codec ID : V_MPEGH/ISO/HEVC

  19. Duration : 1 h 37 min

  20. Bit rate : 11.3 Mb/s

  21. Width : 1 920 pixels

  22. Height : 1 080 pixels

  23. Display aspect ratio : 16:9

  24. Frame rate mode : Constant

  25. Frame rate : 24.000 FPS

  26. Color space : YUV

  27. Chroma subsampling : 4:2:0

  28. Bit depth : 10 bits

  29. Bits/(Pixel*Frame) : 0.228

  30. Stream size : 7.71 GiB (71%)

  31. Writing library : x265 3.2+7-gb291a1c95+26:[Windows][MSVC 1916][64 bit] Yuuki 10bit

  32. Encoding settings : rc=crf / crf=18.0000 / qcomp=0.75 / qpstep=4 / stats-write=0 / stats-read=0 / no-lossless / no-cu-lossless / aq-mode=1 / aq-strength=1.00 / cbqpoffs=-2 / crqpoffs=-2 / ipratio=1.40 / pbratio=1.30 / psy-rd=2.10 / psy-rdoq=3.30 / deblock=-1:-1 / ref=4 / limit-refs=1 / limit-modes / bframes=12 / b-adapt=1 / bframe-bias=0 / b-pyramid / b-intra / weightp / weightb / min-keyint=24 / max-keyint=250 / rc-lookahead=75 / gop-lookahead=0 / scenecut=40 / radl=0 / max-cu-size=16 / min-cu-size=8 / me=2 / subme=7 / merange=45 / rdoq-level=1 / rd=5 / rdpenalty=0 / dynamic-rd=0.00 / no-rd-refine / ----- / cutree / no-sao / rect / amp / no-open-gop / wpp / no-pmode / no-pme / no-psnr / no-ssim / nr-intra=0 / nr-inter=0 / no-constrained-intra / no-strong-intra-smoothing / max-tu-size=16 / tu-inter-depth=1 / tu-intra-depth=1 / limit-tu=0 / qg-size=16 / qpmax=69 / qpmin=0 / ----- / cpuid=1111039 / frame-threads=5 / numa-pools=48,48 / log-level=2 / input-csp=1 / input-res=1920x1080 / interlace=0 / level-idc=0 / high-tier=1 / uhd-bd=0 / no-allow-non-conformance / no-repeat-headers / no-aud / no-hrd / info / hash=0 / no-temporal-layers / lookahead-slices=6 / no-splice / no-intra-refresh / no-ssim-rd / signhide / no-tskip / max-merge=3 / no-temporal-mvp / no-hme / no-analyze-src-pics / no-sao-non-deblock / selective-sao=0 / early-skip / rskip / fast-intra / no-tskip-fast / no-splitrd-skip / zone-count=0 / no-strict-cbr / no-rc-grain / no-const-vbv / sar=0 / overscan=0 / videoformat=5 / range=0 / colorprim=2 / transfer=2 / colormatrix=2 / chromaloc=0 / display-window=0 / cll=0,0 / min-luma=0 / max-luma=1023 / log2-max-poc-lsb=8 / vui-timing-info / vui-hrd-info / slices=1 / no-opt-qp-pps / no-opt-ref-list-length-pps / no-multi-pass-opt-rps / scenecut-bias=0.05 / no-opt-cu-delta-qp / aq-motion / no-hdr / no-hdr-opt / no-dhdr10-opt / no-idr-recovery-sei / analysis-reuse-level=5 / scale-factor=0 / refine-intra=0 / refine-inter=0 / refine-mv=1 / refine-ctu-distortion=0 / no-limit-sao / ctu-info=0 / no-lowpass-dct / refine-analysis-type=0 / copy-pic=1 / max-ausize-factor=1.0 / no-dynamic-refine / no-single-sei / hevc-aq / no-svt / no-field / qp-adaptation-range=1.00

  33. Default : Yes

  34. Forced : No


  35. Audio #1

  36. ID : 1

  37. Format : PCM

  38. Format settings : Little / Signed

  39. Codec ID : A_PCM/INT/LIT

  40. Duration : 1 h 37 min

  41. Bit rate mode : Constant

  42. Bit rate : 2 304 kb/s

  43. Channel(s) : 2 channels

  44. Sampling rate : 48.0 kHz

  45. Frame rate : 200.000 FPS (240 SPF)

  46. Bit depth : 24 bits

  47. Stream size : 1.57 GiB (14%)

  48. Title : 粤语

  49. Language : Chinese

  50. Default : Yes

  51. Forced : No


  52. Audio #2

  53. ID : 2

  54. Format : PCM

  55. Format settings : Little / Signed

  56. Codec ID : A_PCM/INT/LIT

  57. Duration : 1 h 37 min

  58. Bit rate mode : Constant

  59. Bit rate : 2 304 kb/s

  60. Channel(s) : 2 channels

  61. Sampling rate : 48.0 kHz

  62. Frame rate : 200.000 FPS (240 SPF)

  63. Bit depth : 24 bits

  64. Stream size : 1.57 GiB (14%)

  65. Title : 国语

  66. Language : Chinese

  67. Default : No

  68. Forced : No


  69. Text #1

  70. ID : 3

  71. Format : PGS

  72. Muxing mode : zlib

  73. Codec ID : S_HDMV/PGS

  74. Codec ID/Info : Picture based subtitle format used on BDs/HD-DVDs

  75. Duration : 1 h 35 min

  76. Bit rate : 50.8 kb/s

  77. Count of elements : 3572

  78. Stream size : 34.6 MiB (0%)

  79. Title : 繁中

  80. Language : Chinese

  81. Default : Yes

  82. Forced : No


  83. Text #2

  84. ID : 4

  85. Format : PGS

  86. Muxing mode : zlib

  87. Codec ID : S_HDMV/PGS

  88. Codec ID/Info : Picture based subtitle format used on BDs/HD-DVDs

  89. Duration : 1 h 35 min

  90. Bit rate : 49.7 kb/s

  91. Count of elements : 3572

  92. Stream size : 33.8 MiB (0%)

  93. Title : 简中

  94. Language : Chinese

  95. Default : No

  96. Forced : No


  97. Text #3

  98. ID : 5

  99. Format : PGS

  100. Muxing mode : zlib

  101. Codec ID : S_HDMV/PGS

  102. Codec ID/Info : Picture based subtitle format used on BDs/HD-DVDs

  103. Duration : 1 h 35 min

  104. Bit rate : 44.1 kb/s

  105. Count of elements : 3572

  106. Stream size : 30.0 MiB (0%)

  107. Language : English

  108. Default : No

  109. Forced : No


  110. Menu

  111. 00:00:00.000 : :第 01 章

  112. 00:07:01.791 : :第 02 章

  113. 00:16:35.541 : :第 03 章

  114. 00:23:50.333 : :第 04 章

  115. 00:32:32.333 : :第 05 章

  116. 00:40:45.750 : :第 06 章

  117. 00:49:07.000 : :第 07 章

  118. 00:56:17.416 : :第 08 章

  119. 01:04:20.041 : :第 09 章

  120. 01:13:55.958 : :第 10 章

  121. 01:23:55.250 : :第 11 章

  122. 01:30:00.375 : :第 12 章


复制代码




文件下载


除非特别注明,本文『情圣[国粤多音轨/简繁英字幕].The.Magnificent.Scoundrels.1991.BluRay.1080p.LPCM2.0.x265.10bit-DreamHD 10.88GB』来源于互联网机器人自动抓取,非本站原创。 浮游电影网不对本文拥有版权,如有侵犯,请联系邮箱:fuyouu#yandex.com[#换成@]投诉。我们会在15个工作日内删除。 但烦请转载时请标明出处:“本文转载于『浮游电影网』,原文地址:https://www.fuyouu.com/22938.html

评论吧骚年!

发表你的见解   

昵称*

E-mail*(建议输入,以便收到博主回复的提示邮件)

验证码*

您可以使用eMule或eMule Mod(Windows)、aMule(Win、Linux、Mac)等软件下载eD2k链接。。
eMule收藏集(.emulecollection)文件是您选中的所有链接的列表文件。eMule可以直接下载它们。
按住SHIFT键选择可以选中多个选择框。
可用文件名和大小选择器来选择文件。
文件名选择器帮您根据文件名称或后缀来选择文件。不分大小写。
符号使用:
和:空格( )、+
不包含:-
或:|
转义:一对英文引号("");
匹配开头:^
匹配结尾:$
例如:
选中所有名称中包含有“eMule”或“0.49c”字眼,但不包含有“exe”字眼的:emule|0.49c -exe
选中所有名称的开头是“eMule”,结尾是“0.49c”的:^emule 0.49c$
选中所有名称中带有“eMule 0.49c”的(必须是“eMule 0.49c”,中间没有别的字符,不能是“eMule fake 0.49c”),需要转义:"emule 0.49c"
大小选择器帮您根据文件大小选择文件。