当前位置: 首页 >> 欧美电影 >> 迷失之城[国语音轨/中英字幕].The.Lost.City.2022.BluRay.1080p.TrueHD7.1.x265.10bit-DreamHD 7.17GB >> 正文

迷失之城[国语音轨/中英字幕].The.Lost.City.2022.BluRay.1080p.TrueHD7.1.x265.10bit-DreamHD 7.17GB

2022年12月25日 15:50:05     电影发布:来源于网络     电影分类:欧美电影     评论(0)    

◎标 题 迷失之城

◎译 名 迷失D城 / Lost City of D / 失惊无神闯谜城(港) / 失落谜城(台)

◎片 名 The Lost City

◎年 代 2022

◎产 地 美国

◎类 别 喜剧 / 动作 / 冒险

◎语 言 英语

◎上映日期 2022-07-29(中国大陆) / 2022-03-25(美国)

◎IMDb评分 6.1/10 (120134人评价)

◎IMDb链接 https://www.imdb.com/title/tt13320622/

◎豆瓣评分 5.3/10 (16586人评价)

◎豆瓣链接 https://movie.douban.com/subject/35303842/

◎片 长 112分钟

◎导 演 艾伦·尼 Aaron Nee

亚当·尼 Adam Nee

◎编 剧 奥伦·尤济尔 Oren Uziel

达纳·福克斯 Dana Fox

亚当·尼 Adam Nee

艾伦·尼 Aaron Nee

赛斯·戈登 Seth Gordon

◎演 员 桑德拉·布洛克 Sandra Bullock

查宁·塔图姆 Channing Tatum

丹尼尔·雷德克里夫 Daniel Radcliffe

达明·乔伊·伦道夫 Da'Vine Joy Randolph

布拉德·皮特 Brad Pitt

奥斯卡·努内斯 Oscar Nuñez

帕蒂·哈里森 Patti Harrison

杨伯文 Bowen Yang

乔安·普林格尔 Joan Pringle

赫克托·阿尼巴尔 Héctor Aníbal

托马斯·福布斯·约翰逊 Thomas Forbes-Johnson

斯莱·刘易斯 Sli Lewis

亚当·尼 Adam Nee

雷蒙德·李 Raymond Lee

安东尼·阿尔瓦雷斯 Anthony Alvarez

马西·哈罗 Marcy Jarreau

瑞恩·贾德 Ryan Judd

莉莎·蔡辛 Liza Chasin

桑德拉·布洛克 Sandra Bullock

赛斯·戈登 Seth Gordon

强纳森·赛拉 Jonathan Sela

玛琳·斯图尔特 Marlene Stewart

◎简 介

洛蕾塔·塞琪(桑德拉·布洛克 饰)是一位才华横溢但与世隔绝的作家。在她的畅销爱情冒险小说里,总会出现许多奇异的地方。而作为本书的封面模特,艾伦(查宁·塔图姆 饰)一生都在致力于展现书中英雄角色“达什”的个人魅力。 ” 在与艾伦一起宣传新书时,洛雷塔被一位古怪的亿万富翁(丹尼尔·雷德克里夫 饰)绑架。这位亿万富翁坚信,洛蕾塔的新书能带领他找到失落古城中的宝藏。 与此同时,艾伦为了证明自己可以成为现实中的英雄,而不仅仅是洛蕾塔虚构的人物,决定前去营救她。这对极不对付的搭档需要共同努力,才能在险恶的丛林中生存下来,并在亿万富翁赶到前找到古老的宝藏。

  1. ##### MediaInfo ######

  2. General

  3. Unique ID : 330031046230174241703154478741370146960 (0xF849AADE15301FCEE4E1716166F39090)

  4. Complete name : The.Lost.City.2022.BluRay.1080p.TrueHD7.1.x265.10bit-DreamHD.mkv

  5. Format : Matroska

  6. Format version : Version 4

  7. File size : 7.17 GiB

  8. Duration : 1 h 51 min

  9. Overall bit rate mode : Variable

  10. Overall bit rate : 9 180 kb/s

  11. Encoded date : UTC 2022-07-11 08:01:23

  12. Writing application : mkvmerge v62.0.0 ('Apollo') 64-bit

  13. Writing library : libebml v1.4.2 + libmatroska v1.6.4


  14. Video

  15. ID : 1

  16. Format : HEVC

  17. Format/Info : High Efficiency Video Coding

  18. Format profile : Main [email protected]@Main

  19. Codec ID : V_MPEGH/ISO/HEVC

  20. Duration : 1 h 51 min

  21. Bit rate : 5 150 kb/s

  22. Width : 1 920 pixels

  23. Height : 804 pixels

  24. Display aspect ratio : 2.40:1

  25. Frame rate mode : Constant

  26. Frame rate : 23.976 (24000/1001) FPS

  27. Original frame rate : 23.976 (23976/1000) FPS

  28. Color space : YUV

  29. Chroma subsampling : 4:2:0

  30. Bit depth : 10 bits

  31. Bits/(Pixel*Frame) : 0.139

  32. Stream size : 4.02 GiB (56%)

  33. Writing library : x265 3.5+10-82786fccc:[Windows][MSVC 1929][64 bit] 10bit

  34. Encoding settings : cpuid=1111039 / frame-threads=5 / numa-pools=36,36 / wpp / no-pmode / no-pme / no-psnr / no-ssim / log-level=2 / input-csp=1 / input-res=1920x804 / interlace=0 / total-frames=0 / level-idc=0 / high-tier=1 / uhd-bd=0 / ref=6 / no-allow-non-conformance / repeat-headers / annexb / no-aud / no-eob / no-eos / no-hrd / info / hash=0 / no-temporal-layers / no-open-gop / min-keyint=23 / keyint=250 / gop-lookahead=0 / bframes=8 / b-adapt=2 / b-pyramid / bframe-bias=0 / rc-lookahead=24 / lookahead-slices=5 / scenecut=40 / hist-scenecut=0 / radl=0 / no-splice / no-intra-refresh / ctu=64 / min-cu-size=8 / no-rect / no-amp / max-tu-size=32 / tu-inter-depth=1 / tu-intra-depth=1 / limit-tu=0 / rdoq-level=0 / dynamic-rd=0.00 / no-ssim-rd / signhide / no-tskip / nr-intra=0 / nr-inter=0 / no-constrained-intra / no-strong-intra-smoothing / max-merge=3 / limit-refs=1 / no-limit-modes / me=2 / subme=7 / merange=48 / temporal-mvp / no-frame-dup / no-hme / weightp / weightb / no-analyze-src-pics / deblock=0:0 / sao / no-sao-non-deblock / rd=4 / selective-sao=4 / early-skip / rskip / no-fast-intra / no-tskip-fast / no-cu-lossless / b-intra / no-splitrd-skip / rdpenalty=0 / psy-rd=2.00 / psy-rdoq=0.00 / no-rd-refine / no-lossless / cbqpoffs=0 / crqpoffs=0 / rc=crf / crf=15.0 / qcomp=0.60 / qpstep=4 / stats-write=0 / stats-read=0 / ipratio=1.40 / pbratio=1.30 / aq-mode=3 / aq-strength=1.00 / cutree / zone-count=0 / no-strict-cbr / qg-size=32 / no-rc-grain / qpmax=69 / qpmin=0 / no-const-vbv / sar=0 / overscan=0 / videoformat=5 / range=0 / colorprim=2 / transfer=2 / colormatrix=2 / chromaloc=0 / display-window=0 / cll=0,0 / min-luma=0 / max-luma=1023 / log2-max-poc-lsb=8 / vui-timing-info / vui-hrd-info / slices=1 / no-opt-qp-pps / no-opt-ref-list-length-pps / no-multi-pass-opt-rps / scenecut-bias=0.05 / hist-threshold=0.03 / no-opt-cu-delta-qp / aq-motion / no-hdr10 / no-hdr10-opt / no-dhdr10-opt / no-idr-recovery-sei / analysis-reuse-level=0 / analysis-save-reuse-level=0 / analysis-load-reuse-level=0 / scale-factor=0 / refine-intra=0 / refine-inter=0 / refine-mv=1 / refine-ctu-distortion=0 / no-limit-sao / ctu-info=0 / no-lowpass-dct / refine-analysis-type=0 / copy-pic=1 / max-ausize-factor=1.0 / no-dynamic-refine / no-single-sei / no-hevc-aq / no-svt / no-field / qp-adaptation-range=1.00 / scenecut-aware-qp=0conformance-window-offsets / right=0 / bottom=0 / decoder-max-rate=0 / no-vbv-live-multi-pass

  35. Default : Yes

  36. Forced : No


  37. Audio

  38. ID : 2

  39. Format : MLP FBA 16-ch

  40. Format/Info : Meridian Lossless Packing FBA with 16-channel presentation

  41. Commercial name : Dolby TrueHD with Dolby Atmos

  42. Codec ID : A_TRUEHD

  43. Duration : 1 h 51 min

  44. Bit rate mode : Variable

  45. Bit rate : 3 897 kb/s

  46. Maximum bit rate : 6 855 kb/s

  47. Channel(s) : 8 channels

  48. Channel layout : L R C LFE Ls Rs Lb Rb

  49. Sampling rate : 48.0 kHz

  50. Frame rate : 1 200.000 FPS (40 SPF)

  51. Compression mode : Lossless

  52. Stream size : 3.04 GiB (42%)

  53. Language : Chinese

  54. Default : Yes

  55. Forced : No

  56. Number of dynamic objects : 11

  57. Bed channel count : 1 channel

  58. Bed channel configuration : LFE


  59. Text #1

  60. ID : 3

  61. Format : PGS

  62. Muxing mode : zlib

  63. Codec ID : S_HDMV/PGS

  64. Codec ID/Info : Picture based subtitle format used on BDs/HD-DVDs

  65. Duration : 1 h 51 min

  66. Bit rate : 39.3 kb/s

  67. Count of elements : 3322

  68. Stream size : 31.2 MiB (0%)

  69. Language : Chinese

  70. Default : Yes

  71. Forced : No


  72. Text #2

  73. ID : 4

  74. Format : PGS

  75. Muxing mode : zlib

  76. Codec ID : S_HDMV/PGS

  77. Codec ID/Info : Picture based subtitle format used on BDs/HD-DVDs

  78. Duration : 1 h 51 min

  79. Bit rate : 33.6 kb/s

  80. Count of elements : 3254

  81. Stream size : 26.7 MiB (0%)

  82. Language : Chinese

  83. Default : Yes

  84. Forced : No


  85. Text #3

  86. ID : 5

  87. Format : PGS

  88. Muxing mode : zlib

  89. Codec ID : S_HDMV/PGS

  90. Codec ID/Info : Picture based subtitle format used on BDs/HD-DVDs

  91. Duration : 1 h 45 min

  92. Bit rate : 51.4 kb/s

  93. Count of elements : 3314

  94. Stream size : 38.6 MiB (1%)

  95. Language : English

  96. Default : Yes

  97. Forced : No


  98. Menu

  99. 00:00:00.000 : en:第 01 章

  100. 00:11:26.728 : en:第 02 章

  101. 00:19:31.670 : en:第 03 章

  102. 00:26:55.572 : en:第 04 章

  103. 00:33:43.313 : en:第 05 章

  104. 00:41:30.029 : en:第 06 章

  105. 00:50:29.944 : en:第 07 章

  106. 01:02:19.194 : en:第 08 章

  107. 01:13:31.073 : en:第 09 章

  108. 01:23:19.286 : en:第 10 章

  109. 01:34:35.253 : en:第 11 章

  110. 01:44:53.621 : en:第 12 章


复制代码





文件下载


除非特别注明,本文『迷失之城[国语音轨/中英字幕].The.Lost.City.2022.BluRay.1080p.TrueHD7.1.x265.10bit-DreamHD 7.17GB』来源于互联网机器人自动抓取,非本站原创。 浮游电影网不对本文拥有版权,如有侵犯,请联系邮箱:fuyouu#yandex.com[#换成@]投诉。我们会在15个工作日内删除。 但烦请转载时请标明出处:“本文转载于『浮游电影网』,原文地址:https://www.fuyouu.com/22937.html

评论吧骚年!

发表你的见解   

昵称*

E-mail*(建议输入,以便收到博主回复的提示邮件)

验证码*

您可以使用eMule或eMule Mod(Windows)、aMule(Win、Linux、Mac)等软件下载eD2k链接。。
eMule收藏集(.emulecollection)文件是您选中的所有链接的列表文件。eMule可以直接下载它们。
按住SHIFT键选择可以选中多个选择框。
可用文件名和大小选择器来选择文件。
文件名选择器帮您根据文件名称或后缀来选择文件。不分大小写。
符号使用:
和:空格( )、+
不包含:-
或:|
转义:一对英文引号("");
匹配开头:^
匹配结尾:$
例如:
选中所有名称中包含有“eMule”或“0.49c”字眼,但不包含有“exe”字眼的:emule|0.49c -exe
选中所有名称的开头是“eMule”,结尾是“0.49c”的:^emule 0.49c$
选中所有名称中带有“eMule 0.49c”的(必须是“eMule 0.49c”,中间没有别的字符,不能是“eMule fake 0.49c”),需要转义:"emule 0.49c"
大小选择器帮您根据文件大小选择文件。