当前位置: 首页 >> 欧美电影 >> 利刃出鞘2[简繁英字幕].Glass.Onion.A.Knives.Out.Mystery.2022.1080p.NF.WEB-DL.x264.DDP5.1.Atmos-MOMOWEB 7.32GB >> 正文

利刃出鞘2[简繁英字幕].Glass.Onion.A.Knives.Out.Mystery.2022.1080p.NF.WEB-DL.x264.DDP5.1.Atmos-MOMOWEB 7.32GB

2022年12月24日 08:47:36     电影发布:来源于网络     电影分类:欧美电影     评论(0)    

◎标 题 利刃出鞘2

◎译 名 利刃出鞘2:抽丝剥茧 / 玻璃洋葱:利刃出鞘疑案 / 锋回路转:抽丝剥茧(台) / 神探白朗2:抽丝剥茧(港) / 峰回路转2 / Knives Out‎ 2 / Glass Onion

◎片 名 Glass Onion: A Knives Out Mystery

◎年 代 2022

◎产 地 美国

◎类 别 剧情 / 喜剧 / 悬疑 / 惊悚 / 犯罪

◎语 言 英语

◎上映日期 2022-09-10(多伦多电影节) / 2022-12-23(美国网络)

◎IMDb评分 8/10 (12880人评价)

◎IMDb链接 https://www.imdb.com/title/tt11564570/

◎豆瓣评分 7.7/10 (1318人评价)

◎豆瓣链接 https://movie.douban.com/subject/34939037/

◎片 长 139分钟

◎导 演 莱恩·约翰逊 Rian Johnson

◎编 剧 莱恩·约翰逊 Rian Johnson

◎演 员 丹尼尔·克雷格 Daniel Craig

爱德华·诺顿 Edward Norton

加奈儿·梦奈 Janelle Monáe

凯瑟琳·哈恩 Kathryn Hahn

小莱斯利·奥多姆 Leslie Odom Jr.

凯特·哈德森 Kate Hudson

戴夫·巴蒂斯塔 Dave Bautista

杰西卡·亨维克 Jessica Henwick

安吉拉·兰斯伯瑞 Angela Lansbury

马友友 Yo-Yo Ma

伊桑·霍克 Ethan Hawke

休·格兰特 Hugh Grant

约瑟夫·高登-莱维特 Joseph Gordon-Levitt

玛德琳·克莱因 Madelyn Cline

达拉斯·罗伯特斯 Dallas Roberts

诺阿·西甘 Noah Segan

杰姬·霍夫曼 Jackie Hoffman

史蒂芬·桑德海姆 Stephen Sondheim

娜塔莎·雷昂 Natasha Lyonne

卡里姆·阿卜杜尔-贾巴尔 Kareem Abdul-Jabbar

塞蕾娜·威廉姆斯 Serena Williams

丹·查里顿 Dan Chariton

艾迪·戈罗杰茨基 Eddie Gorodetsky

Adam Davenport Adam Davenport

James Payton James Payton

拉姆·伯格曼 Ram Bergman

◎简 介

在莱恩·约翰逊的《利刃出鞘》续篇中,侦探贝努瓦·布兰克将前往希腊,破解层层谜团,一众形形色色的全新嫌疑人也将一一登场。

  1. ##### MediaInfo ######

  2. General

  3. Unique ID : 318841789522450011999592005279996001808 (0xEFDEB1EB478BB8E091F94AD47D6D3E10)

  4. Complete name : Glass.Onion.A.Knives.Out.Mystery.2022.1080p.NF.WEB-DL.x264.DDP5.1.Atmos-MOMOWEB.mkv

  5. Format : Matroska

  6. Format version : Version 4

  7. File size : 7.32 GiB

  8. Duration : 2 h 21 min

  9. Overall bit rate mode : Variable

  10. Overall bit rate : 7 434 kb/s

  11. Encoded date : UTC 2022-12-23 08:15:38

  12. Writing application : mkvmerge v69.0.0 ('Day And Age') 64-bit

  13. Writing library : libebml v1.4.2 + libmatroska v1.6.4


  14. Video

  15. ID : 1

  16. Format : AVC

  17. Format/Info : Advanced Video Codec

  18. Format profile : [email protected]

  19. Format settings : CABAC / 4 Ref Frames

  20. Format settings, CABAC : Yes

  21. Format settings, Reference frames : 4 frames

  22. Codec ID : V_MPEG4/ISO/AVC

  23. Duration : 2 h 21 min

  24. Bit rate mode : Variable

  25. Bit rate : 6 659 kb/s

  26. Maximum bit rate : 20.0 Mb/s

  27. Width : 1 920 pixels

  28. Height : 1 080 pixels

  29. Display aspect ratio : 16:9

  30. Frame rate mode : Constant

  31. Frame rate : 24.000 FPS

  32. Color space : YUV

  33. Chroma subsampling : 4:2:0

  34. Bit depth : 8 bits

  35. Scan type : Progressive

  36. Bits/(Pixel*Frame) : 0.134

  37. Stream size : 6.56 GiB (90%)

  38. Writing library : x264 core 148 r2727 7d026e8

  39. Encoding settings : cabac=1 / ref=4 / deblock=1:0:0 / analyse=0x3:0x111 / me=umh / subme=10 / psy=1 / psy_rd=1.00:0.00 / mixed_ref=1 / me_range=120 / chroma_me=1 / trellis=2 / 8x8dct=1 / cqm=0 / deadzone=21,11 / fast_pskip=1 / chroma_qp_offset=-2 / threads=8 / lookahead_threads=2 / sliced_threads=0 / nr=0 / decimate=1 / interlaced=0 / bluray_compat=0 / stitchable=1 / constrained_intra=0 / bframes=16 / b_pyramid=2 / b_adapt=2 / b_bias=0 / direct=3 / weightb=1 / open_gop=0 / weightp=2 / keyint=240 / keyint_min=121 / scenecut=0 / intra_refresh=0 / rc_lookahead=240 / rc=crf / mbtree=1 / crf=16.0 / qcomp=0.50 / qpmin=6 / qpmax=51 / qpstep=4 / vbv_maxrate=20000 / vbv_bufsize=25000 / crf_max=0.0 / nal_hrd=vbr / filler=0 / ip_ratio=1.40 / aq=1:0.80

  40. Default : Yes

  41. Forced : No


  42. Audio

  43. ID : 2

  44. Format : E-AC-3 JOC

  45. Format/Info : Enhanced AC-3 with Joint Object Coding

  46. Commercial name : Dolby Digital Plus with Dolby Atmos

  47. Codec ID : A_EAC3

  48. Duration : 2 h 21 min

  49. Bit rate mode : Constant

  50. Bit rate : 768 kb/s

  51. Channel(s) : 6 channels

  52. Channel layout : L R C LFE Ls Rs

  53. Sampling rate : 48.0 kHz

  54. Frame rate : 31.250 FPS (1536 SPF)

  55. Bit depth : 32 bits

  56. Compression mode : Lossy

  57. Stream size : 775 MiB (10%)

  58. Title : English

  59. Language : English

  60. Service kind : Complete Main

  61. Default : Yes

  62. Forced : No

  63. Complexity index : 16

  64. Number of dynamic objects : 15

  65. Bed channel count : 1 channel

  66. Bed channel configuration : LFE


  67. Text #1

  68. ID : 3

  69. Format : UTF-8

  70. Codec ID : S_TEXT/UTF8

  71. Codec ID/Info : UTF-8 Plain Text

  72. Duration : 2 h 18 min

  73. Bit rate : 60 b/s

  74. Count of elements : 1997

  75. Stream size : 61.8 KiB (0%)

  76. Title : Chinese Simplified

  77. Language : Chinese

  78. Default : Yes

  79. Forced : No


  80. Text #2

  81. ID : 4

  82. Format : UTF-8

  83. Codec ID : S_TEXT/UTF8

  84. Codec ID/Info : UTF-8 Plain Text

  85. Duration : 2 h 18 min

  86. Bit rate : 60 b/s

  87. Count of elements : 2074

  88. Stream size : 61.7 KiB (0%)

  89. Title : Chinese Traditional

  90. Language : Chinese

  91. Default : No

  92. Forced : No


  93. Text #3

  94. ID : 5

  95. Format : UTF-8

  96. Codec ID : S_TEXT/UTF8

  97. Codec ID/Info : UTF-8 Plain Text

  98. Duration : 2 h 13 min

  99. Bit rate : 85 b/s

  100. Count of elements : 2340

  101. Stream size : 83.8 KiB (0%)

  102. Title : English

  103. Language : English

  104. Default : No

  105. Forced : No


  106. Text #4

  107. ID : 6

  108. Format : UTF-8

  109. Codec ID : S_TEXT/UTF8

  110. Codec ID/Info : UTF-8 Plain Text

  111. Duration : 2 h 18 min

  112. Bit rate : 115 b/s

  113. Count of elements : 2016

  114. Stream size : 117 KiB (0%)

  115. Title : Arabic

  116. Language : Arabic

  117. Default : No

  118. Forced : No


  119. Text #5

  120. ID : 7

  121. Format : UTF-8

  122. Codec ID : S_TEXT/UTF8

  123. Codec ID/Info : UTF-8 Plain Text

  124. Duration : 2 h 18 min

  125. Bit rate : 65 b/s

  126. Count of elements : 1974

  127. Stream size : 67.0 KiB (0%)

  128. Title : Catalan

  129. Language : Catalan

  130. Default : No

  131. Forced : No


  132. Text #6

  133. ID : 8

  134. Format : UTF-8

  135. Codec ID : S_TEXT/UTF8

  136. Codec ID/Info : UTF-8 Plain Text

  137. Duration : 2 h 12 min

  138. Bit rate : 69 b/s

  139. Count of elements : 2033

  140. Stream size : 67.4 KiB (0%)

  141. Title : Czech

  142. Language : Czech

  143. Default : No

  144. Forced : No


  145. Text #7

  146. ID : 9

  147. Format : UTF-8

  148. Codec ID : S_TEXT/UTF8

  149. Codec ID/Info : UTF-8 Plain Text

  150. Duration : 2 h 13 min

  151. Bit rate : 75 b/s

  152. Count of elements : 2261

  153. Stream size : 74.2 KiB (0%)

  154. Title : Czech

  155. Language : Czech

  156. Default : No

  157. Forced : No


  158. Text #8

  159. ID : 10

  160. Format : UTF-8

  161. Codec ID : S_TEXT/UTF8

  162. Codec ID/Info : UTF-8 Plain Text

  163. Duration : 2 h 18 min

  164. Bit rate : 64 b/s

  165. Count of elements : 1985

  166. Stream size : 65.2 KiB (0%)

  167. Title : Danish

  168. Language : Danish

  169. Default : No

  170. Forced : No


  171. Text #9

  172. ID : 11

  173. Format : UTF-8

  174. Codec ID : S_TEXT/UTF8

  175. Codec ID/Info : UTF-8 Plain Text

  176. Duration : 2 h 12 min

  177. Bit rate : 88 b/s

  178. Count of elements : 2201

  179. Stream size : 85.9 KiB (0%)

  180. Title : German

  181. Language : German

  182. Default : No

  183. Forced : No


  184. Text #10

  185. ID : 12

  186. Format : UTF-8

  187. Codec ID : S_TEXT/UTF8

  188. Codec ID/Info : UTF-8 Plain Text

  189. Duration : 2 h 13 min

  190. Bit rate : 94 b/s

  191. Count of elements : 2381

  192. Stream size : 91.8 KiB (0%)

  193. Title : German SDH

  194. Language : German

  195. Default : No

  196. Forced : No


  197. Text #11

  198. ID : 13

  199. Format : UTF-8

  200. Codec ID : S_TEXT/UTF8

  201. Codec ID/Info : UTF-8 Plain Text

  202. Duration : 2 h 18 min

  203. Bit rate : 110 b/s

  204. Count of elements : 1986

  205. Stream size : 113 KiB (0%)

  206. Title : Greek

  207. Language : Greek

  208. Default : No

  209. Forced : No


  210. Text #12

  211. ID : 14

  212. Format : UTF-8

  213. Codec ID : S_TEXT/UTF8

  214. Codec ID/Info : UTF-8 Plain Text

  215. Duration : 2 h 12 min

  216. Bit rate : 76 b/s

  217. Count of elements : 2113

  218. Stream size : 74.6 KiB (0%)

  219. Title : Spanish (Spain)

  220. Language : Spanish

  221. Default : No

  222. Forced : No


  223. Text #13

  224. ID : 15

  225. Format : UTF-8

  226. Codec ID : S_TEXT/UTF8

  227. Codec ID/Info : UTF-8 Plain Text

  228. Duration : 2 h 13 min

  229. Bit rate : 83 b/s

  230. Count of elements : 2317

  231. Stream size : 81.1 KiB (0%)

  232. Title : Spanish (Spain) SDH

  233. Language : Spanish

  234. Default : No

  235. Forced : No


  236. Text #14

  237. ID : 16

  238. Format : UTF-8

  239. Codec ID : S_TEXT/UTF8

  240. Codec ID/Info : UTF-8 Plain Text

  241. Duration : 2 h 12 min

  242. Bit rate : 78 b/s

  243. Count of elements : 2098

  244. Stream size : 76.3 KiB (0%)

  245. Title : Spanish

  246. Language : Spanish

  247. Default : No

  248. Forced : No


  249. Text #15

  250. ID : 17

  251. Format : UTF-8

  252. Codec ID : S_TEXT/UTF8

  253. Codec ID/Info : UTF-8 Plain Text

  254. Duration : 2 h 13 min

  255. Bit rate : 84 b/s

  256. Count of elements : 2268

  257. Stream size : 82.6 KiB (0%)

  258. Title : Spanish SDH

  259. Language : Spanish

  260. Default : No

  261. Forced : No


  262. Text #16

  263. ID : 18

  264. Format : UTF-8

  265. Codec ID : S_TEXT/UTF8

  266. Codec ID/Info : UTF-8 Plain Text

  267. Duration : 2 h 18 min

  268. Bit rate : 67 b/s

  269. Count of elements : 1945

  270. Stream size : 68.3 KiB (0%)

  271. Title : Basque

  272. Language : Basque

  273. Default : No

  274. Forced : No


  275. Text #17

  276. ID : 19

  277. Format : UTF-8

  278. Codec ID : S_TEXT/UTF8

  279. Codec ID/Info : UTF-8 Plain Text

  280. Duration : 2 h 18 min

  281. Bit rate : 63 b/s

  282. Count of elements : 1871

  283. Stream size : 64.8 KiB (0%)

  284. Title : Finnish

  285. Language : Finnish

  286. Default : No

  287. Forced : No


  288. Text #18

  289. ID : 20

  290. Format : UTF-8

  291. Codec ID : S_TEXT/UTF8

  292. Codec ID/Info : UTF-8 Plain Text

  293. Duration : 2 h 18 min

  294. Bit rate : 64 b/s

  295. Count of elements : 1977

  296. Stream size : 65.7 KiB (0%)

  297. Title : Filipino

  298. Language : fil

  299. Default : No

  300. Forced : No


  301. Text #19

  302. ID : 21

  303. Format : UTF-8

  304. Codec ID : S_TEXT/UTF8

  305. Codec ID/Info : UTF-8 Plain Text

  306. Duration : 2 h 12 min

  307. Bit rate : 88 b/s

  308. Count of elements : 2094

  309. Stream size : 86.3 KiB (0%)

  310. Title : French

  311. Language : French

  312. Default : No

  313. Forced : No


  314. Text #20

  315. ID : 22

  316. Format : UTF-8

  317. Codec ID : S_TEXT/UTF8

  318. Codec ID/Info : UTF-8 Plain Text

  319. Duration : 2 h 13 min

  320. Bit rate : 96 b/s

  321. Count of elements : 2322

  322. Stream size : 94.3 KiB (0%)

  323. Title : French

  324. Language : French

  325. Default : No

  326. Forced : No


  327. Text #21

  328. ID : 23

  329. Format : UTF-8

  330. Codec ID : S_TEXT/UTF8

  331. Codec ID/Info : UTF-8 Plain Text

  332. Duration : 2 h 18 min

  333. Bit rate : 61 b/s

  334. Count of elements : 1963

  335. Stream size : 62.8 KiB (0%)

  336. Title : Galician

  337. Language : Galician

  338. Default : No

  339. Forced : No


  340. Text #22

  341. ID : 24

  342. Format : UTF-8

  343. Codec ID : S_TEXT/UTF8

  344. Codec ID/Info : UTF-8 Plain Text

  345. Duration : 2 h 18 min

  346. Bit rate : 106 b/s

  347. Count of elements : 1992

  348. Stream size : 108 KiB (0%)

  349. Title : Hebrew

  350. Language : Hebrew

  351. Default : No

  352. Forced : No


  353. Text #23

  354. ID : 25

  355. Format : UTF-8

  356. Codec ID : S_TEXT/UTF8

  357. Codec ID/Info : UTF-8 Plain Text

  358. Duration : 2 h 18 min

  359. Bit rate : 60 b/s

  360. Count of elements : 1953

  361. Stream size : 61.8 KiB (0%)

  362. Title : Croatian

  363. Language : Croatian

  364. Default : No

  365. Forced : No


  366. Text #24

  367. ID : 26

  368. Format : UTF-8

  369. Codec ID : S_TEXT/UTF8

  370. Codec ID/Info : UTF-8 Plain Text

  371. Duration : 2 h 10 min

  372. Bit rate : 76 b/s

  373. Count of elements : 1974

  374. Stream size : 72.8 KiB (0%)

  375. Title : Hungarian

  376. Language : Hungarian

  377. Default : No

  378. Forced : No


  379. Text #25

  380. ID : 27

  381. Format : UTF-8

  382. Codec ID : S_TEXT/UTF8

  383. Codec ID/Info : UTF-8 Plain Text

  384. Duration : 2 h 13 min

  385. Bit rate : 87 b/s

  386. Count of elements : 2336

  387. Stream size : 85.2 KiB (0%)

  388. Title : Hungarian SDH

  389. Language : Hungarian

  390. Default : No

  391. Forced : No


  392. Text #26

  393. ID : 28

  394. Format : UTF-8

  395. Codec ID : S_TEXT/UTF8

  396. Codec ID/Info : UTF-8 Plain Text

  397. Duration : 2 h 18 min

  398. Bit rate : 63 b/s

  399. Count of elements : 1990

  400. Stream size : 64.3 KiB (0%)

  401. Title : Indonesian

  402. Language : Indonesian

  403. Default : No

  404. Forced : No


  405. Text #27

  406. ID : 29

  407. Format : UTF-8

  408. Codec ID : S_TEXT/UTF8

  409. Codec ID/Info : UTF-8 Plain Text

  410. Duration : 2 h 12 min

  411. Bit rate : 76 b/s

  412. Count of elements : 1829

  413. Stream size : 73.9 KiB (0%)

  414. Title : Italian

  415. Language : Italian

  416. Default : No

  417. Forced : No


  418. Text #28

  419. ID : 30

  420. Format : UTF-8

  421. Codec ID : S_TEXT/UTF8

  422. Codec ID/Info : UTF-8 Plain Text

  423. Duration : 2 h 12 min

  424. Bit rate : 82 b/s

  425. Count of elements : 1914

  426. Stream size : 80.1 KiB (0%)

  427. Title : Italian SDH

  428. Language : Italian

  429. Default : No

  430. Forced : No


  431. Text #29

  432. ID : 31

  433. Format : UTF-8

  434. Codec ID : S_TEXT/UTF8

  435. Codec ID/Info : UTF-8 Plain Text

  436. Duration : 2 h 18 min

  437. Bit rate : 106 b/s

  438. Count of elements : 1790

  439. Stream size : 109 KiB (0%)

  440. Title : Japanese

  441. Language : Japanese

  442. Default : No

  443. Forced : No


  444. Text #30

  445. ID : 32

  446. Format : UTF-8

  447. Codec ID : S_TEXT/UTF8

  448. Codec ID/Info : UTF-8 Plain Text

  449. Duration : 2 h 18 min

  450. Bit rate : 68 b/s

  451. Count of elements : 2014

  452. Stream size : 69.1 KiB (0%)

  453. Title : Korean

  454. Language : Korean

  455. Default : No

  456. Forced : No


  457. Text #31

  458. ID : 33

  459. Format : UTF-8

  460. Codec ID : S_TEXT/UTF8

  461. Codec ID/Info : UTF-8 Plain Text

  462. Duration : 2 h 18 min

  463. Bit rate : 61 b/s

  464. Count of elements : 1987

  465. Stream size : 63.0 KiB (0%)

  466. Title : Malay

  467. Language : Malay

  468. Default : No

  469. Forced : No


  470. Text #32

  471. ID : 34

  472. Format : UTF-8

  473. Codec ID : S_TEXT/UTF8

  474. Codec ID/Info : UTF-8 Plain Text

  475. Duration : 2 h 18 min

  476. Bit rate : 62 b/s

  477. Count of elements : 1911

  478. Stream size : 63.9 KiB (0%)

  479. Title : Norwegian (Bokmal)

  480. Language : Norwegian Bokmal

  481. Default : No

  482. Forced : No


  483. Text #33

  484. ID : 35

  485. Format : UTF-8

  486. Codec ID : S_TEXT/UTF8

  487. Codec ID/Info : UTF-8 Plain Text

  488. Duration : 2 h 18 min

  489. Bit rate : 60 b/s

  490. Count of elements : 1777

  491. Stream size : 61.9 KiB (0%)

  492. Title : Dutch

  493. Language : Dutch

  494. Default : No

  495. Forced : No


  496. Text #34

  497. ID : 36

  498. Format : UTF-8

  499. Codec ID : S_TEXT/UTF8

  500. Codec ID/Info : UTF-8 Plain Text

  501. Duration : 2 h 18 min

  502. Bit rate : 61 b/s

  503. Count of elements : 1951

  504. Stream size : 62.8 KiB (0%)

  505. Title : Polish

  506. Language : Polish

  507. Default : No

  508. Forced : No


  509. Text #35

  510. ID : 37

  511. Format : UTF-8

  512. Codec ID : S_TEXT/UTF8

  513. Codec ID/Info : UTF-8 Plain Text

  514. Duration : 2 h 18 min

  515. Bit rate : 73 b/s

  516. Count of elements : 2253

  517. Stream size : 75.1 KiB (0%)

  518. Title : Portuguese (Brazil)

  519. Language : Portuguese

  520. Default : No

  521. Forced : No


  522. Text #36

  523. ID : 38

  524. Format : UTF-8

  525. Codec ID : S_TEXT/UTF8

  526. Codec ID/Info : UTF-8 Plain Text

  527. Duration : 2 h 18 min

  528. Bit rate : 82 b/s

  529. Count of elements : 2544

  530. Stream size : 83.7 KiB (0%)

  531. Title : Portuguese (Brazil) SDH

  532. Language : Portuguese

  533. Default : No

  534. Forced : No


  535. Text #37

  536. ID : 39

  537. Format : UTF-8

  538. Codec ID : S_TEXT/UTF8

  539. Codec ID/Info : UTF-8 Plain Text

  540. Duration : 2 h 18 min

  541. Bit rate : 68 b/s

  542. Count of elements : 1982

  543. Stream size : 69.3 KiB (0%)

  544. Title : Portuguese

  545. Language : Portuguese

  546. Default : No

  547. Forced : No


  548. Text #38

  549. ID : 40

  550. Format : UTF-8

  551. Codec ID : S_TEXT/UTF8

  552. Codec ID/Info : UTF-8 Plain Text

  553. Duration : 2 h 18 min

  554. Bit rate : 66 b/s

  555. Count of elements : 1974

  556. Stream size : 68.0 KiB (0%)

  557. Title : Romanian

  558. Language : Romanian

  559. Default : No

  560. Forced : No


  561. Text #39

  562. ID : 41

  563. Format : UTF-8

  564. Codec ID : S_TEXT/UTF8

  565. Codec ID/Info : UTF-8 Plain Text

  566. Duration : 2 h 18 min

  567. Bit rate : 105 b/s

  568. Count of elements : 1984

  569. Stream size : 108 KiB (0%)

  570. Title : Russian

  571. Language : Russian

  572. Default : No

  573. Forced : No


  574. Text #40

  575. ID : 42

  576. Format : UTF-8

  577. Codec ID : S_TEXT/UTF8

  578. Codec ID/Info : UTF-8 Plain Text

  579. Duration : 2 h 18 min

  580. Bit rate : 65 b/s

  581. Count of elements : 1861

  582. Stream size : 66.9 KiB (0%)

  583. Title : Swedish

  584. Language : Swedish

  585. Default : No

  586. Forced : No


  587. Text #41

  588. ID : 43

  589. Format : UTF-8

  590. Codec ID : S_TEXT/UTF8

  591. Codec ID/Info : UTF-8 Plain Text

  592. Duration : 2 h 18 min

  593. Bit rate : 163 b/s

  594. Count of elements : 1996

  595. Stream size : 166 KiB (0%)

  596. Title : Thai

  597. Language : Thai

  598. Default : No

  599. Forced : No


  600. Text #42

  601. ID : 44

  602. Format : UTF-8

  603. Codec ID : S_TEXT/UTF8

  604. Codec ID/Info : UTF-8 Plain Text

  605. Duration : 2 h 10 min

  606. Bit rate : 77 b/s

  607. Count of elements : 1941

  608. Stream size : 74.1 KiB (0%)

  609. Title : Turkish

  610. Language : Turkish

  611. Default : No

  612. Forced : No


  613. Text #43

  614. ID : 45

  615. Format : UTF-8

  616. Codec ID : S_TEXT/UTF8

  617. Codec ID/Info : UTF-8 Plain Text

  618. Duration : 2 h 19 min

  619. Bit rate : 88 b/s

  620. Count of elements : 2296

  621. Stream size : 90.4 KiB (0%)

  622. Title : Turkish SDH

  623. Language : Turkish

  624. Default : No

  625. Forced : No


  626. Text #44

  627. ID : 46

  628. Format : UTF-8

  629. Codec ID : S_TEXT/UTF8

  630. Codec ID/Info : UTF-8 Plain Text

  631. Duration : 2 h 18 min

  632. Bit rate : 105 b/s

  633. Count of elements : 1994

  634. Stream size : 108 KiB (0%)

  635. Title : Ukrainian

  636. Language : Ukrainian

  637. Default : No

  638. Forced : No


  639. Text #45

  640. ID : 47

  641. Format : UTF-8

  642. Codec ID : S_TEXT/UTF8

  643. Codec ID/Info : UTF-8 Plain Text

  644. Duration : 2 h 18 min

  645. Bit rate : 82 b/s

  646. Count of elements : 1972

  647. Stream size : 84.3 KiB (0%)

  648. Title : Vietnamese

  649. Language : Vietnamese

  650. Default : No

  651. Forced : No


复制代码




文件下载


除非特别注明,本文『利刃出鞘2[简繁英字幕].Glass.Onion.A.Knives.Out.Mystery.2022.1080p.NF.WEB-DL.x264.DDP5.1.Atmos-MOMOWEB 7.32GB』来源于互联网机器人自动抓取,非本站原创。 浮游电影网不对本文拥有版权,如有侵犯,请联系邮箱:fuyouu#yandex.com[#换成@]投诉。我们会在15个工作日内删除。 但烦请转载时请标明出处:“本文转载于『浮游电影网』,原文地址:https://www.fuyouu.com/22936.html

评论吧骚年!

发表你的见解   

昵称*

E-mail*(建议输入,以便收到博主回复的提示邮件)

验证码*

您可以使用eMule或eMule Mod(Windows)、aMule(Win、Linux、Mac)等软件下载eD2k链接。。
eMule收藏集(.emulecollection)文件是您选中的所有链接的列表文件。eMule可以直接下载它们。
按住SHIFT键选择可以选中多个选择框。
可用文件名和大小选择器来选择文件。
文件名选择器帮您根据文件名称或后缀来选择文件。不分大小写。
符号使用:
和:空格( )、+
不包含:-
或:|
转义:一对英文引号("");
匹配开头:^
匹配结尾:$
例如:
选中所有名称中包含有“eMule”或“0.49c”字眼,但不包含有“exe”字眼的:emule|0.49c -exe
选中所有名称的开头是“eMule”,结尾是“0.49c”的:^emule 0.49c$
选中所有名称中带有“eMule 0.49c”的(必须是“eMule 0.49c”,中间没有别的字符,不能是“eMule fake 0.49c”),需要转义:"emule 0.49c"
大小选择器帮您根据文件大小选择文件。