当前位置: 首页 >> 日韩电影 >> 是,我不会游泳[简繁字幕].Yes.I.Can't.Swim.2022.1080p.BluRay.x265.10bit.DTS-CTRLHD 6.57GB >> 正文

是,我不会游泳[简繁字幕].Yes.I.Can't.Swim.2022.1080p.BluRay.x265.10bit.DTS-CTRLHD 6.57GB

2022年12月24日 08:46:22     电影发布:来源于网络     电影分类:日韩电影     评论(0)    

◎标 题 是,我不会游泳

◎译 名 是的、不会游泳 / 是的,我不会游泳 / 救救旱鸭子(台) / Yes / I Can't Swim

◎片 名 はい、泳げません

◎年 代 2022

◎产 地 日本

◎类 别 剧情

◎语 言 日语

◎上映日期 2022-06-10(日本)

◎IMDb评分 5.4/10 (28人评价)

◎IMDb链接 https://www.imdb.com/title/tt18750342/

◎豆瓣链接 https://movie.douban.com/subject/35758809/

◎片 长 120分钟

◎导 演 渡边谦作 Kensaku Watanabe

◎编 剧 渡边谦作 Kensaku Watanabe

◎演 员 长谷川博己 Hiroki Hasegawa

绫濑遥 Haruka Ayase

麻生久美子 Kumiko Aso

阿部纯子 Abe Junko

小林薰 Kaoru Kobayashi

伊佐山博子 Hiroko Isayama

占部房子 Fusako Urabe

◎简 介

电影《是的、不会游泳》改编自高桥秀实的著作,长谷川博己饰演的主角明明是一副连都水不敢碰的旱鸭子,却总是找借口的顽固哲学家小鸟游雄司。绫濑遥饰演在教游泳方面非常热情,但除此之外都很笨拙的古怪教练薄原静香。

雄司为大学哲学教授,害怕面对水,完全不会游泳,某天,他老是在人和水的关系上推三阻四,极力避开水。在强行劝说雄司入会的教练静香的教室里,和热闹的主妇们一起开始学习游泳,静香说:「比起陆地,水中更容易生存」,而雄司一边因为对水的恐惧而大吵大闹,但一边仍然继续上课。因为某个理由害怕水的雄司,开始了一进一退的日子。

  1. ##### MediaInfo ######

  2. General

  3. Unique ID : 278861297625672669407903541694128024507 (0xD1CABB7AD14814A42BD09157665D6BBB)

  4. Complete name : Yes.I.Can't.Swim.2022.1080p.BluRay.x265.10bit.DTS-CTRLHD.mkv

  5. Format : Matroska

  6. Format version : Version 4

  7. File size : 6.57 GiB

  8. Duration : 1 h 53 min

  9. Overall bit rate : 8 304 kb/s

  10. Movie name : Yes, I Can't Swim

  11. Encoded date : UTC 2022-12-23 09:15:44

  12. Writing application : mkvmerge v72.0.0 ('Minuano (Six-eight)') 64-bit

  13. Writing library : libebml v1.4.4 + libmatroska v1.7.1

  14. Attachments : FZZhunYuan-M02.ttf


  15. Video

  16. ID : 1

  17. Format : HEVC

  18. Format/Info : High Efficiency Video Coding

  19. Format profile : Main [email protected]@Main

  20. Codec ID : V_MPEGH/ISO/HEVC

  21. Duration : 1 h 53 min

  22. Bit rate : 6 781 kb/s

  23. Width : 1 920 pixels

  24. Height : 804 pixels

  25. Display aspect ratio : 2.40:1

  26. Frame rate mode : Constant

  27. Frame rate : 23.976 (24000/1001) FPS

  28. Color space : YUV

  29. Chroma subsampling : 4:2:0

  30. Bit depth : 10 bits

  31. Bits/(Pixel*Frame) : 0.183

  32. Stream size : 5.36 GiB (82%)

  33. Title : Jubowo @ WiKi

  34. Language : Japanese

  35. Default : Yes

  36. Forced : No


  37. Audio

  38. ID : 2

  39. Format : DTS

  40. Format/Info : Digital Theater Systems

  41. Codec ID : A_DTS

  42. Duration : 1 h 53 min

  43. Bit rate mode : Constant

  44. Bit rate : 1 509 kb/s

  45. Channel(s) : 6 channels

  46. Channel layout : C L R Ls Rs LFE

  47. Sampling rate : 48.0 kHz

  48. Frame rate : 93.750 FPS (512 SPF)

  49. Bit depth : 24 bits

  50. Compression mode : Lossy

  51. Stream size : 1.19 GiB (18%)

  52. Language : Japanese

  53. Default : Yes

  54. Forced : No


  55. Text #1

  56. ID : 3

  57. Format : ASS

  58. Codec ID : S_TEXT/ASS

  59. Codec ID/Info : Advanced Sub Station Alpha

  60. Duration : 1 h 52 min

  61. Bit rate : 79 b/s

  62. Count of elements : 1466

  63. Compression mode : Lossless

  64. Stream size : 65.5 KiB (0%)

  65. Title : 简体

  66. Language : Chinese

  67. Default : Yes

  68. Forced : No


  69. Text #2

  70. ID : 4

  71. Format : ASS

  72. Codec ID : S_TEXT/ASS

  73. Codec ID/Info : Advanced Sub Station Alpha

  74. Duration : 1 h 52 min

  75. Bit rate : 79 b/s

  76. Count of elements : 1466

  77. Compression mode : Lossless

  78. Stream size : 65.5 KiB (0%)

  79. Title : 繁體

  80. Language : Chinese

  81. Default : No

  82. Forced : No


  83. Menu

  84. 00:00:00.000 : en:Chapter 01

  85. 00:13:16.254 : en:Chapter 02

  86. 00:30:44.342 : en:Chapter 03

  87. 00:40:46.444 : en:Chapter 04

  88. 00:51:45.019 : en:Chapter 05

  89. 01:09:28.164 : en:Chapter 06

  90. 01:19:30.766 : en:Chapter 07

  91. 01:26:14.586 : en:Chapter 08

  92. 01:36:49.554 : en:Chapter 09

  93. 01:47:41.914 : en:Chapter 10


复制代码




文件下载


除非特别注明,本文『是,我不会游泳[简繁字幕].Yes.I.Can't.Swim.2022.1080p.BluRay.x265.10bit.DTS-CTRLHD 6.57GB』来源于互联网机器人自动抓取,非本站原创。 浮游电影网不对本文拥有版权,如有侵犯,请联系邮箱:fuyouu#yandex.com[#换成@]投诉。我们会在15个工作日内删除。 但烦请转载时请标明出处:“本文转载于『浮游电影网』,原文地址:https://www.fuyouu.com/22934.html

评论吧骚年!

发表你的见解   

昵称*

E-mail*(建议输入,以便收到博主回复的提示邮件)

验证码*

您可以使用eMule或eMule Mod(Windows)、aMule(Win、Linux、Mac)等软件下载eD2k链接。。
eMule收藏集(.emulecollection)文件是您选中的所有链接的列表文件。eMule可以直接下载它们。
按住SHIFT键选择可以选中多个选择框。
可用文件名和大小选择器来选择文件。
文件名选择器帮您根据文件名称或后缀来选择文件。不分大小写。
符号使用:
和:空格( )、+
不包含:-
或:|
转义:一对英文引号("");
匹配开头:^
匹配结尾:$
例如:
选中所有名称中包含有“eMule”或“0.49c”字眼,但不包含有“exe”字眼的:emule|0.49c -exe
选中所有名称的开头是“eMule”,结尾是“0.49c”的:^emule 0.49c$
选中所有名称中带有“eMule 0.49c”的(必须是“eMule 0.49c”,中间没有别的字符,不能是“eMule fake 0.49c”),需要转义:"emule 0.49c"
大小选择器帮您根据文件大小选择文件。