当前位置: 首页 >> 海外电影 >> 哈瓦[简繁英字幕].Hawa.2022.1080p.AMZN.WEB-DL.DDP5.1.H264-MOMOWEB 4.62GB >> 正文

哈瓦[简繁英字幕].Hawa.2022.1080p.AMZN.WEB-DL.DDP5.1.H264-MOMOWEB 4.62GB

2022年12月24日 08:45:04     电影发布:来源于网络     电影分类:海外电影     评论(0)    

◎标 题 哈瓦

◎片 名 Hawa

◎年 代 2022

◎产 地 法国

◎语 言 法语 / 班巴拉语

◎上映日期 2022-09(多伦多电影节)

◎IMDb评分 5.3/10 (213人评价)

◎IMDb链接 https://www.imdb.com/title/tt21909950/

◎豆瓣链接 https://movie.douban.com/subject/36039983/

◎片 长 104分钟

◎导 演 麦穆娜·杜库雷 Maïmouna Doucouré

◎编 剧 麦穆娜·杜库雷 Maïmouna Doucouré

◎演 员 阿姆兰·拉彻 Amlan Larcher

◎简 介

A Capraesque tale about a soon-to-be-orphaned adolescent seeking an audience with Michelle Obama, Maïmouna Doucouré’s sophomore feature dismantles boundaries of status and decorum and celebrates the power of self-determination.

  1. ##### MediaInfo ######

  2. General

  3. Unique ID : 262756818676618288845590883934557909933 (0xC5AD1F5D5901F051B9A4FC4C91E333AD)

  4. Complete name : Hawa.2022.1080p.AMZN.WEB-DL.DDP5.1.H264-MOMOWEB.mkv

  5. Format : Matroska

  6. Format version : Version 4

  7. File size : 4.62 GiB

  8. Duration : 1 h 45 min

  9. Overall bit rate : 6 297 kb/s

  10. Movie name : Hawa.2022.1080p.AMZN.WEB-DL.DDP5.1.H264-PTerWEB

  11. Encoded date : UTC 2022-12-23 10:54:53

  12. Writing application : mkvmerge v72.0.0 ('Minuano (Six-eight)') 64-bit

  13. Writing library : libebml v1.4.4 + libmatroska v1.7.1


  14. Video

  15. ID : 1

  16. Format : AVC

  17. Format/Info : Advanced Video Codec

  18. Format profile : [email protected]

  19. Format settings : CABAC / 4 Ref Frames

  20. Format settings, CABAC : Yes

  21. Format settings, Reference frames : 4 frames

  22. Codec ID : V_MPEG4/ISO/AVC

  23. Duration : 1 h 45 min

  24. Bit rate mode : Constant

  25. Bit rate : 5 651 kb/s

  26. Nominal bit rate : 10 000 kb/s

  27. Width : 1 920 pixels

  28. Height : 872 pixels

  29. Display aspect ratio : 2.2:1

  30. Original display aspect ratio : 2.2:1

  31. Frame rate mode : Constant

  32. Frame rate : 24.000 FPS

  33. Color space : YUV

  34. Chroma subsampling : 4:2:0

  35. Bit depth : 8 bits

  36. Scan type : Progressive

  37. Bits/(Pixel*Frame) : 0.141

  38. Stream size : 4.15 GiB (90%)

  39. Default : Yes

  40. Forced : No

  41. Color range : Limited

  42. Color primaries : BT.709

  43. Transfer characteristics : BT.709

  44. Matrix coefficients : BT.709


  45. Audio

  46. ID : 2

  47. Format : E-AC-3

  48. Format/Info : Enhanced AC-3

  49. Commercial name : Dolby Digital Plus

  50. Codec ID : A_EAC3

  51. Duration : 1 h 45 min

  52. Bit rate mode : Constant

  53. Bit rate : 640 kb/s

  54. Channel(s) : 6 channels

  55. Channel layout : L R C LFE Ls Rs

  56. Sampling rate : 48.0 kHz

  57. Frame rate : 31.250 FPS (1536 SPF)

  58. Compression mode : Lossy

  59. Stream size : 481 MiB (10%)

  60. Language : French

  61. Service kind : Complete Main

  62. Default : Yes

  63. Forced : No


  64. Text #1

  65. ID : 3

  66. Format : UTF-8

  67. Codec ID : S_TEXT/UTF8

  68. Codec ID/Info : UTF-8 Plain Text

  69. Duration : 1 h 43 min

  70. Bit rate : 77 b/s

  71. Count of elements : 1321

  72. Stream size : 58.3 KiB (0%)

  73. Language : Arabic

  74. Default : No

  75. Forced : No


  76. Text #2

  77. ID : 4

  78. Format : UTF-8

  79. Codec ID : S_TEXT/UTF8

  80. Codec ID/Info : UTF-8 Plain Text

  81. Duration : 1 h 43 min

  82. Bit rate : 44 b/s

  83. Count of elements : 1298

  84. Stream size : 33.2 KiB (0%)

  85. Language : Czech

  86. Default : No

  87. Forced : No


  88. Text #3

  89. ID : 5

  90. Format : UTF-8

  91. Codec ID : S_TEXT/UTF8

  92. Codec ID/Info : UTF-8 Plain Text

  93. Duration : 1 h 43 min

  94. Bit rate : 43 b/s

  95. Count of elements : 1311

  96. Stream size : 33.2 KiB (0%)

  97. Language : Danish

  98. Default : No

  99. Forced : No


  100. Text #4

  101. ID : 6

  102. Format : UTF-8

  103. Codec ID : S_TEXT/UTF8

  104. Codec ID/Info : UTF-8 Plain Text

  105. Duration : 1 h 43 min

  106. Bit rate : 44 b/s

  107. Count of elements : 1306

  108. Stream size : 33.4 KiB (0%)

  109. Language : German

  110. Default : No

  111. Forced : No


  112. Text #5

  113. ID : 7

  114. Format : UTF-8

  115. Codec ID : S_TEXT/UTF8

  116. Codec ID/Info : UTF-8 Plain Text

  117. Duration : 1 h 43 min

  118. Bit rate : 78 b/s

  119. Count of elements : 1319

  120. Stream size : 59.1 KiB (0%)

  121. Language : Greek

  122. Default : No

  123. Forced : No


  124. Text #6

  125. ID : 8

  126. Format : UTF-8

  127. Codec ID : S_TEXT/UTF8

  128. Codec ID/Info : UTF-8 Plain Text

  129. Duration : 1 h 41 min

  130. Bit rate : 41 b/s

  131. Count of elements : 1183

  132. Stream size : 30.7 KiB (0%)

  133. Language : English

  134. Default : No

  135. Forced : No


  136. Text #7

  137. ID : 9

  138. Format : UTF-8

  139. Codec ID : S_TEXT/UTF8

  140. Codec ID/Info : UTF-8 Plain Text

  141. Duration : 1 h 43 min

  142. Bit rate : 44 b/s

  143. Count of elements : 1310

  144. Stream size : 33.4 KiB (0%)

  145. Title : Latinoamérica

  146. Language : Spanish

  147. Default : No

  148. Forced : No


  149. Text #8

  150. ID : 10

  151. Format : UTF-8

  152. Codec ID : S_TEXT/UTF8

  153. Codec ID/Info : UTF-8 Plain Text

  154. Duration : 1 h 43 min

  155. Bit rate : 43 b/s

  156. Count of elements : 1304

  157. Stream size : 33.1 KiB (0%)

  158. Title : Espa?a

  159. Language : Spanish

  160. Default : No

  161. Forced : No


  162. Text #9

  163. ID : 11

  164. Format : UTF-8

  165. Codec ID : S_TEXT/UTF8

  166. Codec ID/Info : UTF-8 Plain Text

  167. Duration : 1 h 43 min

  168. Bit rate : 41 b/s

  169. Count of elements : 1308

  170. Stream size : 31.2 KiB (0%)

  171. Language : Finnish

  172. Default : No

  173. Forced : No


  174. Text #10

  175. ID : 12

  176. Format : UTF-8

  177. Codec ID : S_TEXT/UTF8

  178. Codec ID/Info : UTF-8 Plain Text

  179. Duration : 1 h 43 min

  180. Bit rate : 49 b/s

  181. Count of elements : 1312

  182. Stream size : 37.2 KiB (0%)

  183. Language : fil

  184. Default : No

  185. Forced : No


  186. Text #11

  187. ID : 13

  188. Format : UTF-8

  189. Codec ID : S_TEXT/UTF8

  190. Codec ID/Info : UTF-8 Plain Text

  191. Duration : 1 h 40 min

  192. Bit rate : 8 b/s

  193. Count of elements : 195

  194. Stream size : 6.09 KiB (0%)

  195. Title : Forced

  196. Language : French

  197. Default : No

  198. Forced : No


  199. Text #12

  200. ID : 14

  201. Format : UTF-8

  202. Codec ID : S_TEXT/UTF8

  203. Codec ID/Info : UTF-8 Plain Text

  204. Duration : 1 h 43 min

  205. Bit rate : 55 b/s

  206. Count of elements : 1411

  207. Stream size : 42.0 KiB (0%)

  208. Title : SDH

  209. Language : French

  210. Default : No

  211. Forced : No


  212. Text #13

  213. ID : 15

  214. Format : UTF-8

  215. Codec ID : S_TEXT/UTF8

  216. Codec ID/Info : UTF-8 Plain Text

  217. Duration : 1 h 43 min

  218. Bit rate : 71 b/s

  219. Count of elements : 1321

  220. Stream size : 53.8 KiB (0%)

  221. Language : Hebrew

  222. Default : No

  223. Forced : No


  224. Text #14

  225. ID : 16

  226. Format : UTF-8

  227. Codec ID : S_TEXT/UTF8

  228. Codec ID/Info : UTF-8 Plain Text

  229. Duration : 1 h 43 min

  230. Bit rate : 110 b/s

  231. Count of elements : 1321

  232. Stream size : 83.5 KiB (0%)

  233. Language : Hindi

  234. Default : No

  235. Forced : No


  236. Text #15

  237. ID : 17

  238. Format : UTF-8

  239. Codec ID : S_TEXT/UTF8

  240. Codec ID/Info : UTF-8 Plain Text

  241. Duration : 1 h 43 min

  242. Bit rate : 44 b/s

  243. Count of elements : 1310

  244. Stream size : 33.6 KiB (0%)

  245. Language : Hungarian

  246. Default : No

  247. Forced : No


  248. Text #16

  249. ID : 18

  250. Format : UTF-8

  251. Codec ID : S_TEXT/UTF8

  252. Codec ID/Info : UTF-8 Plain Text

  253. Duration : 1 h 43 min

  254. Bit rate : 44 b/s

  255. Count of elements : 1305

  256. Stream size : 33.8 KiB (0%)

  257. Language : Indonesian

  258. Default : No

  259. Forced : No


  260. Text #17

  261. ID : 19

  262. Format : UTF-8

  263. Codec ID : S_TEXT/UTF8

  264. Codec ID/Info : UTF-8 Plain Text

  265. Duration : 1 h 43 min

  266. Bit rate : 43 b/s

  267. Count of elements : 1308

  268. Stream size : 32.6 KiB (0%)

  269. Language : Italian

  270. Default : No

  271. Forced : No


  272. Text #18

  273. ID : 20

  274. Format : UTF-8

  275. Codec ID : S_TEXT/UTF8

  276. Codec ID/Info : UTF-8 Plain Text

  277. Duration : 1 h 43 min

  278. Bit rate : 41 b/s

  279. Count of elements : 1198

  280. Stream size : 31.4 KiB (0%)

  281. Language : Japanese

  282. Default : No

  283. Forced : No


  284. Text #19

  285. ID : 21

  286. Format : UTF-8

  287. Codec ID : S_TEXT/UTF8

  288. Codec ID/Info : UTF-8 Plain Text

  289. Duration : 1 h 43 min

  290. Bit rate : 45 b/s

  291. Count of elements : 1317

  292. Stream size : 34.2 KiB (0%)

  293. Language : Korean

  294. Default : No

  295. Forced : No


  296. Text #20

  297. ID : 22

  298. Format : UTF-8

  299. Codec ID : S_TEXT/UTF8

  300. Codec ID/Info : UTF-8 Plain Text

  301. Duration : 1 h 43 min

  302. Bit rate : 42 b/s

  303. Count of elements : 1311

  304. Stream size : 32.3 KiB (0%)

  305. Language : Malay

  306. Default : No

  307. Forced : No


  308. Text #21

  309. ID : 23

  310. Format : UTF-8

  311. Codec ID : S_TEXT/UTF8

  312. Codec ID/Info : UTF-8 Plain Text

  313. Duration : 1 h 43 min

  314. Bit rate : 43 b/s

  315. Count of elements : 1308

  316. Stream size : 32.5 KiB (0%)

  317. Language : Norwegian Bokmal

  318. Default : No

  319. Forced : No


  320. Text #22

  321. ID : 24

  322. Format : UTF-8

  323. Codec ID : S_TEXT/UTF8

  324. Codec ID/Info : UTF-8 Plain Text

  325. Duration : 1 h 43 min

  326. Bit rate : 42 b/s

  327. Count of elements : 1305

  328. Stream size : 31.7 KiB (0%)

  329. Language : Dutch

  330. Default : No

  331. Forced : No


  332. Text #23

  333. ID : 25

  334. Format : UTF-8

  335. Codec ID : S_TEXT/UTF8

  336. Codec ID/Info : UTF-8 Plain Text

  337. Duration : 1 h 43 min

  338. Bit rate : 40 b/s

  339. Count of elements : 1278

  340. Stream size : 30.3 KiB (0%)

  341. Language : Polish

  342. Default : No

  343. Forced : No


  344. Text #24

  345. ID : 26

  346. Format : UTF-8

  347. Codec ID : S_TEXT/UTF8

  348. Codec ID/Info : UTF-8 Plain Text

  349. Duration : 1 h 43 min

  350. Bit rate : 44 b/s

  351. Count of elements : 1308

  352. Stream size : 33.7 KiB (0%)

  353. Title : Brasil

  354. Language : Portuguese

  355. Default : No

  356. Forced : No


  357. Text #25

  358. ID : 27

  359. Format : UTF-8

  360. Codec ID : S_TEXT/UTF8

  361. Codec ID/Info : UTF-8 Plain Text

  362. Duration : 1 h 43 min

  363. Bit rate : 41 b/s

  364. Count of elements : 1304

  365. Stream size : 31.3 KiB (0%)

  366. Title : Portugal

  367. Language : Portuguese

  368. Default : No

  369. Forced : No


  370. Text #26

  371. ID : 28

  372. Format : UTF-8

  373. Codec ID : S_TEXT/UTF8

  374. Codec ID/Info : UTF-8 Plain Text

  375. Duration : 1 h 43 min

  376. Bit rate : 45 b/s

  377. Count of elements : 1311

  378. Stream size : 34.2 KiB (0%)

  379. Language : Romanian

  380. Default : No

  381. Forced : No


  382. Text #27

  383. ID : 29

  384. Format : UTF-8

  385. Codec ID : S_TEXT/UTF8

  386. Codec ID/Info : UTF-8 Plain Text

  387. Duration : 1 h 43 min

  388. Bit rate : 73 b/s

  389. Count of elements : 1323

  390. Stream size : 55.2 KiB (0%)

  391. Language : Russian

  392. Default : No

  393. Forced : No


  394. Text #28

  395. ID : 30

  396. Format : UTF-8

  397. Codec ID : S_TEXT/UTF8

  398. Codec ID/Info : UTF-8 Plain Text

  399. Duration : 1 h 43 min

  400. Bit rate : 44 b/s

  401. Count of elements : 1310

  402. Stream size : 33.4 KiB (0%)

  403. Language : Swedish

  404. Default : No

  405. Forced : No


  406. Text #29

  407. ID : 31

  408. Format : UTF-8

  409. Codec ID : S_TEXT/UTF8

  410. Codec ID/Info : UTF-8 Plain Text

  411. Duration : 1 h 43 min

  412. Bit rate : 116 b/s

  413. Count of elements : 1307

  414. Stream size : 87.8 KiB (0%)

  415. Language : Tamil

  416. Default : No

  417. Forced : No


  418. Text #30

  419. ID : 32

  420. Format : UTF-8

  421. Codec ID : S_TEXT/UTF8

  422. Codec ID/Info : UTF-8 Plain Text

  423. Duration : 1 h 43 min

  424. Bit rate : 117 b/s

  425. Count of elements : 1321

  426. Stream size : 88.9 KiB (0%)

  427. Language : Telugu

  428. Default : No

  429. Forced : No


  430. Text #31

  431. ID : 33

  432. Format : UTF-8

  433. Codec ID : S_TEXT/UTF8

  434. Codec ID/Info : UTF-8 Plain Text

  435. Duration : 1 h 43 min

  436. Bit rate : 106 b/s

  437. Count of elements : 1321

  438. Stream size : 80.2 KiB (0%)

  439. Language : Thai

  440. Default : No

  441. Forced : No


  442. Text #32

  443. ID : 34

  444. Format : UTF-8

  445. Codec ID : S_TEXT/UTF8

  446. Codec ID/Info : UTF-8 Plain Text

  447. Duration : 1 h 43 min

  448. Bit rate : 43 b/s

  449. Count of elements : 1310

  450. Stream size : 32.6 KiB (0%)

  451. Language : Turkish

  452. Default : No

  453. Forced : No


  454. Text #33

  455. ID : 35

  456. Format : UTF-8

  457. Codec ID : S_TEXT/UTF8

  458. Codec ID/Info : UTF-8 Plain Text

  459. Duration : 1 h 43 min

  460. Bit rate : 68 b/s

  461. Count of elements : 1321

  462. Stream size : 52.1 KiB (0%)

  463. Language : Ukrainian

  464. Default : No

  465. Forced : No


  466. Text #34

  467. ID : 36

  468. Format : UTF-8

  469. Codec ID : S_TEXT/UTF8

  470. Codec ID/Info : UTF-8 Plain Text

  471. Duration : 1 h 43 min

  472. Bit rate : 58 b/s

  473. Count of elements : 1312

  474. Stream size : 44.0 KiB (0%)

  475. Language : Vietnamese

  476. Default : No

  477. Forced : No


  478. Text #35

  479. ID : 37

  480. Format : UTF-8

  481. Codec ID : S_TEXT/UTF8

  482. Codec ID/Info : UTF-8 Plain Text

  483. Duration : 1 h 43 min

  484. Bit rate : 41 b/s

  485. Count of elements : 1321

  486. Stream size : 31.2 KiB (0%)

  487. Title : 中文(简体)

  488. Language : Chinese

  489. Default : No

  490. Forced : No


  491. Text #36

  492. ID : 38

  493. Format : UTF-8

  494. Codec ID : S_TEXT/UTF8

  495. Codec ID/Info : UTF-8 Plain Text

  496. Duration : 1 h 43 min

  497. Bit rate : 40 b/s

  498. Count of elements : 1322

  499. Stream size : 30.5 KiB (0%)

  500. Title : 中文(繁體)

  501. Language : Chinese

  502. Default : No

  503. Forced : No


复制代码




文件下载


除非特别注明,本文『哈瓦[简繁英字幕].Hawa.2022.1080p.AMZN.WEB-DL.DDP5.1.H264-MOMOWEB 4.62GB』来源于互联网机器人自动抓取,非本站原创。 浮游电影网不对本文拥有版权,如有侵犯,请联系邮箱:fuyouu#yandex.com[#换成@]投诉。我们会在15个工作日内删除。 但烦请转载时请标明出处:“本文转载于『浮游电影网』,原文地址:https://www.fuyouu.com/22932.html

评论吧骚年!

发表你的见解   

昵称*

E-mail*(建议输入,以便收到博主回复的提示邮件)

验证码*

您可以使用eMule或eMule Mod(Windows)、aMule(Win、Linux、Mac)等软件下载eD2k链接。。
eMule收藏集(.emulecollection)文件是您选中的所有链接的列表文件。eMule可以直接下载它们。
按住SHIFT键选择可以选中多个选择框。
可用文件名和大小选择器来选择文件。
文件名选择器帮您根据文件名称或后缀来选择文件。不分大小写。
符号使用:
和:空格( )、+
不包含:-
或:|
转义:一对英文引号("");
匹配开头:^
匹配结尾:$
例如:
选中所有名称中包含有“eMule”或“0.49c”字眼,但不包含有“exe”字眼的:emule|0.49c -exe
选中所有名称的开头是“eMule”,结尾是“0.49c”的:^emule 0.49c$
选中所有名称中带有“eMule 0.49c”的(必须是“eMule 0.49c”,中间没有别的字符,不能是“eMule fake 0.49c”),需要转义:"emule 0.49c"
大小选择器帮您根据文件大小选择文件。