当前位置: 首页 >> 欧美电影 >> 岳父大人[杜比视界版本][简繁英字幕].Father.of.the.Bride.2022.2160p.HMAX.WEB-DL.DDP5.1.Atmos.DoVi.x265-MOMOWEB 15.36G >> 正文

岳父大人[杜比视界版本][简繁英字幕].Father.of.the.Bride.2022.2160p.HMAX.WEB-DL.DDP5.1.Atmos.DoVi.x265-MOMOWEB 15.36G

2022年12月24日 08:44:25     电影发布:来源于网络     电影分类:欧美电影     评论(0)    

◎标 题 岳父大人

◎片 名 Father of the Bride

◎年 代 2022

◎产 地 美国

◎类 别 剧情 / 喜剧 / 爱情 / 奇幻

◎语 言 英语

◎上映日期 2022-06-16(美国网络)

◎IMDb评分 5.9/10 (10078人评价)

◎IMDb链接 https://www.imdb.com/title/tt13249596/

◎豆瓣评分 6.1/10 (664人评价)

◎豆瓣链接 https://movie.douban.com/subject/35442148/

◎片 长 117分钟

◎导 演 盖瑞·阿拉兹拉奇 Gary Alazraki

◎编 剧 马特·洛佩兹 Matt Lopez

◎演 员 安迪·加西亚 Andy Garcia

阿德里娅·阿霍纳 Adria Arjona

迪耶戈·博内塔 Diego Boneta

葛洛丽亚·伊斯特芬 Gloria Estefan

伊莎贝拉·莫奈 Isabela Moner

克洛伊·菲内曼 Chloe Fineman

劳拉·哈灵 Laura Harring

恩里克·穆西安诺 Enrique Murciano

南茜·德·梅奥 Nancy De Mayo

鲁本·拉巴萨 Ruben Rabasa

凯西·托马斯·布朗 Casey Thomas Brown

佩德罗·达米安 Pedro Damián

玛卡瑞娜·阿查加 Macarena Achaga

Celine Alva Celine Alva

谢鹤群 Ho-Kwan Tse

杰弗里·保罗·瓦伦蒂 JP Valenti

丹妮·海芙琳 Danni Heverin

华金·蒙特斯 Joaquin Montes

泰伦斯·布兰查德 Terence Blanchard

卡罗琳·埃塞林 Caroline Eselin

◎简 介

本片将聚焦一个古巴裔美国家庭,围绕一位准新娘的父亲如何面对女儿的婚礼展开。

  1. ##### MediaInfo ######

  2. General

  3. Unique ID : 106633426830340971145574989674030854206 (0x5038D9D9DBF5E699CEDE308FA2A4703E)

  4. Complete name : Father.of.the.Bride.2022.2160p.HMAX.WEB-DL.DDP5.1.Atmos.DoVi.x265-MOMOWEB.mkv

  5. Format : Matroska

  6. Format version : Version 4

  7. File size : 15.4 GiB

  8. Duration : 1 h 57 min

  9. Overall bit rate : 18.7 Mb/s

  10. Movie name : Father.of.the.Bride.2022.2160p.HMAX.WEB-DL.DDP5.1.Atmos.DoVi.x265-PTerWEB

  11. Encoded date : UTC 2022-12-22 14:58:02

  12. Writing application : mkvmerge v72.0.0 ('Minuano (Six-eight)') 64-bit

  13. Writing library : libebml v1.4.4 + libmatroska v1.7.1


  14. Video

  15. ID : 1

  16. Format : HEVC

  17. Format/Info : High Efficiency Video Coding

  18. Format profile : Main [email protected]@Main

  19. Codec ID : V_MPEGH/ISO/HEVC

  20. Duration : 1 h 57 min

  21. Bit rate : 17.9 Mb/s

  22. Width : 3 840 pixels

  23. Height : 2 160 pixels

  24. Display aspect ratio : 16:9

  25. Frame rate mode : Constant

  26. Frame rate : 23.976 (24000/1001) FPS

  27. Color space : YUV

  28. Chroma subsampling : 4:2:0

  29. Bit depth : 10 bits

  30. Bits/(Pixel*Frame) : 0.090

  31. Stream size : 14.7 GiB (96%)

  32. Writing library : x265 3.4hy:[Linux][GCC 7.5.0][64 bit] 10bit

  33. Encoding settings : cpuid=1111039 / frame-threads=6 / no-wpp / no-pmode / no-pme / no-psnr / no-ssim / log-level=2 / input-csp=1 / input-res=3840x2160 / interlace=0 / total-frames=0 / level-idc=0 / high-tier=1 / uhd-bd=0 / ref=4 / no-allow-non-conformance / repeat-headers / annexb / aud / hrd / info / hash=0 / no-temporal-layers / no-open-gop / min-keyint=96 / keyint=96 / gop-lookahead=0 / bframes=4 / b-adapt=2 / b-pyramid / bframe-bias=0 / rc-lookahead=25 / lookahead-slices=4 / scenecut=40 / hist-scenecut=0 / radl=0 / no-splice / no-intra-refresh / ctu=64 / min-cu-size=8 / rect / no-amp / max-tu-size=32 / tu-inter-depth=1 / tu-intra-depth=1 / limit-tu=0 / rdoq-level=2 / dynamic-rd=0.00 / no-ssim-rd / signhide / no-tskip / nr-intra=0 / nr-inter=0 / no-constrained-intra / strong-intra-smoothing / max-merge=3 / limit-refs=3 / limit-modes / me=3 / subme=3 / merange=57 / temporal-mvp / no-frame-dup / no-hme / weightp / no-weightb / no-analyze-src-pics / deblock=0:0 / sao / no-sao-non-deblock / rd=4 / selective-sao=4 / no-early-skip / rskip / no-fast-intra / no-tskip-fast / no-cu-lossless / no-b-intra / no-splitrd-skip / rdpenalty=0 / psy-rd=2.00 / psy-rdoq=1.00 / no-rd-refine / no-lossless / cbqpoffs=0 / crqpoffs=3 / rc=abr / bitrate=18000 / qcomp=0.60 / qpstep=4 / stats-write=0 / stats-read=2 / cplxblur=20.0 / qblur=0.5 / vbv-maxrate=24500 / vbv-bufsize=24500 / vbv-init=0.6 / vbv-end=0.6 / vbv-end-fr-adj=0.0 / ipratio=1.40 / pbratio=1.30 / aq-mode=2 / aq-strength=1.00 / cutree / zone-count=0 / no-strict-cbr / qg-size=32 / no-rc-grain / qpmax=69 / qpmin=0 / no-const-vbv / sar=1 / overscan=0 / videoformat=5 / range=1 / colorprim=2 / transfer=2 / colormatrix=2 / chromaloc=0 / display-window=0 / cll=0,0 / min-luma=0 / max-luma=1023 / log2-max-poc-lsb=8 / vui-timing-info / vui-hrd-info / no-concatenation / slices=1 / no-opt-qp-pps / no-opt-ref-list-length-pps / no-multi-pass-opt-rps / scenecut-bias=0.05 / hist-threshold=0.01 / no-opt-cu-delta-qp / no-aq-motion / no-hdr10 / no-hdr10-opt / no-dhdr10-opt / no-idr-recovery-sei / analysis-reuse-level=0 / analysis-save-reuse-level=0 / analysis-load-reuse-level=0 / scale-factor=0 / refine-intra=0 / refine-inter=0 / refine-mv=1 / refine-ctu-distortion=0 / no-limit-sao / ctu-info=0 / no-lowpass-dct / refine-analysis-type=0 / copy-pic=1 / max-ausize-factor=1.0 / no-dynamic-refine / no-single-sei / no-hevc-aq / no-svt / no-field / qp-adaptation-range=1.00 / no-scenecut-aware-qpconformance-window-offsets / right=0 / bottom=0 / decoder-max-rate=0

  34. Default : Yes

  35. Forced : No

  36. Color range : Full


  37. Audio

  38. ID : 2

  39. Format : E-AC-3 JOC

  40. Format/Info : Enhanced AC-3 with Joint Object Coding

  41. Commercial name : Dolby Digital Plus with Dolby Atmos

  42. Codec ID : A_EAC3

  43. Duration : 1 h 57 min

  44. Bit rate mode : Constant

  45. Bit rate : 768 kb/s

  46. Channel(s) : 6 channels

  47. Channel layout : L R C LFE Ls Rs

  48. Sampling rate : 48.0 kHz

  49. Frame rate : 31.250 FPS (1536 SPF)

  50. Compression mode : Lossy

  51. Delay relative to video : -83 ms

  52. Stream size : 646 MiB (4%)

  53. Language : English

  54. Service kind : Complete Main

  55. Default : Yes

  56. Forced : No

  57. Complexity index : 16

  58. Number of dynamic objects : 15

  59. Bed channel count : 1 channel

  60. Bed channel configuration : LFE


  61. Text #1

  62. ID : 3

  63. Format : UTF-8

  64. Codec ID : S_TEXT/UTF8

  65. Codec ID/Info : UTF-8 Plain Text

  66. Bit rate : 0 b/s

  67. Count of elements : 0

  68. Stream size : 0.00 Byte (0%)

  69. Title : SDH

  70. Language : English

  71. Default : No

  72. Forced : No


  73. Text #2

  74. ID : 4

  75. Format : UTF-8

  76. Codec ID : S_TEXT/UTF8

  77. Codec ID/Info : UTF-8 Plain Text

  78. Bit rate : 0 b/s

  79. Count of elements : 0

  80. Stream size : 0.00 Byte (0%)

  81. Title : SDH

  82. Language : Spanish

  83. Default : No

  84. Forced : No


  85. Text #3

  86. ID : 5

  87. Format : UTF-8

  88. Codec ID : S_TEXT/UTF8

  89. Codec ID/Info : UTF-8 Plain Text

  90. Duration : 1 h 51 min

  91. Bit rate : 82 b/s

  92. Count of elements : 2215

  93. Stream size : 67.4 KiB (0%)

  94. Title : 中文(简体)

  95. Language : Chinese

  96. Default : No

  97. Forced : No


  98. Text #4

  99. ID : 6

  100. Format : UTF-8

  101. Codec ID : S_TEXT/UTF8

  102. Codec ID/Info : UTF-8 Plain Text

  103. Duration : 1 h 51 min

  104. Bit rate : 82 b/s

  105. Count of elements : 2215

  106. Stream size : 67.5 KiB (0%)

  107. Title : 中文(繁體)

  108. Language : Chinese

  109. Default : No

  110. Forced : No


  111. Text #5

  112. ID : 7

  113. Format : UTF-8

  114. Codec ID : S_TEXT/UTF8

  115. Codec ID/Info : UTF-8 Plain Text

  116. Duration : 1 h 57 min

  117. Bit rate : 74 b/s

  118. Count of elements : 2222

  119. Stream size : 63.7 KiB (0%)

  120. Title : 中文(繁體)香港

  121. Language : Chinese

  122. Default : No

  123. Forced : No


复制代码





文件下载


除非特别注明,本文『岳父大人[杜比视界版本][简繁英字幕].Father.of.the.Bride.2022.2160p.HMAX.WEB-DL.DDP5.1.Atmos.DoVi.x265-MOMOWEB 15.36G』来源于互联网机器人自动抓取,非本站原创。 浮游电影网不对本文拥有版权,如有侵犯,请联系邮箱:fuyouu#yandex.com[#换成@]投诉。我们会在15个工作日内删除。 但烦请转载时请标明出处:“本文转载于『浮游电影网』,原文地址:https://www.fuyouu.com/22931.html

评论吧骚年!

发表你的见解   

昵称*

E-mail*(建议输入,以便收到博主回复的提示邮件)

验证码*

您可以使用eMule或eMule Mod(Windows)、aMule(Win、Linux、Mac)等软件下载eD2k链接。。
eMule收藏集(.emulecollection)文件是您选中的所有链接的列表文件。eMule可以直接下载它们。
按住SHIFT键选择可以选中多个选择框。
可用文件名和大小选择器来选择文件。
文件名选择器帮您根据文件名称或后缀来选择文件。不分大小写。
符号使用:
和:空格( )、+
不包含:-
或:|
转义:一对英文引号("");
匹配开头:^
匹配结尾:$
例如:
选中所有名称中包含有“eMule”或“0.49c”字眼,但不包含有“exe”字眼的:emule|0.49c -exe
选中所有名称的开头是“eMule”,结尾是“0.49c”的:^emule 0.49c$
选中所有名称中带有“eMule 0.49c”的(必须是“eMule 0.49c”,中间没有别的字符,不能是“eMule fake 0.49c”),需要转义:"emule 0.49c"
大小选择器帮您根据文件大小选择文件。