当前位置: 首页 >> 日韩电影 >> 不羁夜2022[简繁英字幕].Boogie.Nights.2022.1080p.AMZN.WEB-DL.DDP5.1.H264-MOMOWEB 5.32GB >> 正文

不羁夜2022[简繁英字幕].Boogie.Nights.2022.1080p.AMZN.WEB-DL.DDP5.1.H264-MOMOWEB 5.32GB

2022年12月24日 08:43:46     电影发布:来源于网络     电影分类:日韩电影     评论(0)    

◎标 题 不羁夜2022

◎译 名 Boogie Nights

◎片 名 부기나이트

◎年 代 2022

◎产 地 韩国

◎类 别 动作 / 犯罪

◎语 言 韩语

◎上映日期 2022-04-28(韩国)

◎IMDb评分 5.6/10 (15人评价)

◎IMDb链接 https://www.imdb.com/title/tt22054008/

◎豆瓣评分 4.7/10 (240人评价)

◎豆瓣链接 https://movie.douban.com/subject/35890287/

◎片 长 89分钟

◎导 演 金京叶 Kim Kyung-yeop

◎编 剧 金京叶 Kim Kyung-yeop

◎演 员 崔奎华 Gwi-hwa Choi

李时媛 Si-won Lee

朴奂喜 Hwan-hi Park

金希珍 Kim Hee-jung

白珠熙 JuHee Baek

张慧媛 Jang Hye Won

◎简 介

《不羁夜2022》在因北韩的核弹宣战而乱作一团的世界里,直到几个小时前还过着无聊平凡的日常生活的“瑜斌”为了享受人生最后一天的一天,和朋友们一起去夜总会。从在男厕所遇到的《演奏》到能让你赚大钱的酒馆老板娘,在夜总会…

  1. ##### MediaInfo ######

  2. General

  3. Unique ID : 232462553590324531372927230648839404641 (0xAEE2A8C748B5AB2C690E6887801D7C61)

  4. Complete name : Boogie.Nights.2022.1080p.AMZN.WEB-DL.DDP5.1.H264-MOMOWEB.mkv

  5. Format : Matroska

  6. Format version : Version 4

  7. File size : 5.32 GiB

  8. Duration : 1 h 28 min

  9. Overall bit rate : 8 607 kb/s

  10. Movie name : Boogie.Nights.2022.1080p.AMZN.WEB-DL.DDP5.1.H264-PTerWEB

  11. Encoded date : UTC 2022-12-22 17:52:15

  12. Writing application : mkvmerge v72.0.0 ('Minuano (Six-eight)') 64-bit

  13. Writing library : libebml v1.4.4 + libmatroska v1.7.1


  14. Video

  15. ID : 1

  16. Format : AVC

  17. Format/Info : Advanced Video Codec

  18. Format profile : [email protected]

  19. Format settings : CABAC / 4 Ref Frames

  20. Format settings, CABAC : Yes

  21. Format settings, Reference frames : 4 frames

  22. Codec ID : V_MPEG4/ISO/AVC

  23. Duration : 1 h 28 min

  24. Bit rate mode : Constant

  25. Bit rate : 7 964 kb/s

  26. Nominal bit rate : 10 000 kb/s

  27. Width : 1 920 pixels

  28. Height : 800 pixels

  29. Display aspect ratio : 2.40:1

  30. Frame rate mode : Constant

  31. Frame rate : 23.976 (24000/1001) FPS

  32. Color space : YUV

  33. Chroma subsampling : 4:2:0

  34. Bit depth : 8 bits

  35. Scan type : Progressive

  36. Bits/(Pixel*Frame) : 0.216

  37. Stream size : 4.92 GiB (93%)

  38. Default : Yes

  39. Forced : No

  40. Color range : Limited

  41. Color primaries : BT.709

  42. Transfer characteristics : BT.709

  43. Matrix coefficients : BT.709


  44. Audio

  45. ID : 2

  46. Format : E-AC-3

  47. Format/Info : Enhanced AC-3

  48. Commercial name : Dolby Digital Plus

  49. Codec ID : A_EAC3

  50. Duration : 1 h 28 min

  51. Bit rate mode : Constant

  52. Bit rate : 640 kb/s

  53. Channel(s) : 6 channels

  54. Channel layout : L R C LFE Ls Rs

  55. Sampling rate : 48.0 kHz

  56. Frame rate : 31.250 FPS (1536 SPF)

  57. Compression mode : Lossy

  58. Stream size : 405 MiB (7%)

  59. Language : Korean

  60. Service kind : Complete Main

  61. Default : Yes

  62. Forced : No


  63. Text #1

  64. ID : 3

  65. Format : UTF-8

  66. Codec ID : S_TEXT/UTF8

  67. Codec ID/Info : UTF-8 Plain Text

  68. Duration : 1 h 25 min

  69. Bit rate : 47 b/s

  70. Count of elements : 1191

  71. Stream size : 29.9 KiB (0%)

  72. Language : Malay

  73. Default : No

  74. Forced : No


  75. Text #2

  76. ID : 4

  77. Format : UTF-8

  78. Codec ID : S_TEXT/UTF8

  79. Codec ID/Info : UTF-8 Plain Text

  80. Duration : 1 h 25 min

  81. Bit rate : 49 b/s

  82. Count of elements : 1190

  83. Stream size : 30.9 KiB (0%)

  84. Language : English

  85. Default : No

  86. Forced : No


  87. Text #3

  88. ID : 5

  89. Format : UTF-8

  90. Codec ID : S_TEXT/UTF8

  91. Codec ID/Info : UTF-8 Plain Text

  92. Duration : 1 h 28 min

  93. Bit rate : 51 b/s

  94. Count of elements : 1190

  95. Stream size : 33.4 KiB (0%)

  96. Language : fil

  97. Default : No

  98. Forced : No


  99. Text #4

  100. ID : 6

  101. Format : UTF-8

  102. Codec ID : S_TEXT/UTF8

  103. Codec ID/Info : UTF-8 Plain Text

  104. Duration : 1 h 27 min

  105. Bit rate : 50 b/s

  106. Count of elements : 1192

  107. Stream size : 32.4 KiB (0%)

  108. Language : Indonesian

  109. Default : No

  110. Forced : No


  111. Text #5

  112. ID : 7

  113. Format : UTF-8

  114. Codec ID : S_TEXT/UTF8

  115. Codec ID/Info : UTF-8 Plain Text

  116. Duration : 1 h 25 min

  117. Bit rate : 67 b/s

  118. Count of elements : 1196

  119. Stream size : 42.1 KiB (0%)

  120. Language : Vietnamese

  121. Default : No

  122. Forced : No


  123. Text #6

  124. ID : 8

  125. Format : UTF-8

  126. Codec ID : S_TEXT/UTF8

  127. Codec ID/Info : UTF-8 Plain Text

  128. Duration : 1 h 25 min

  129. Bit rate : 126 b/s

  130. Count of elements : 1192

  131. Stream size : 79.5 KiB (0%)

  132. Language : Thai

  133. Default : No

  134. Forced : No


  135. Text #7

  136. ID : 9

  137. Format : UTF-8

  138. Codec ID : S_TEXT/UTF8

  139. Codec ID/Info : UTF-8 Plain Text

  140. Duration : 1 h 25 min

  141. Bit rate : 56 b/s

  142. Count of elements : 1218

  143. Stream size : 35.1 KiB (0%)

  144. Title : 中文(简体)

  145. Language : Chinese

  146. Default : No

  147. Forced : No


  148. Text #8

  149. ID : 10

  150. Format : UTF-8

  151. Codec ID : S_TEXT/UTF8

  152. Codec ID/Info : UTF-8 Plain Text

  153. Duration : 1 h 25 min

  154. Bit rate : 48 b/s

  155. Count of elements : 1194

  156. Stream size : 30.3 KiB (0%)

  157. Title : 中文(繁體)

  158. Language : Chinese

  159. Default : No

  160. Forced : No




文件下载


除非特别注明,本文『不羁夜2022[简繁英字幕].Boogie.Nights.2022.1080p.AMZN.WEB-DL.DDP5.1.H264-MOMOWEB 5.32GB』来源于互联网机器人自动抓取,非本站原创。 浮游电影网不对本文拥有版权,如有侵犯,请联系邮箱:fuyouu#yandex.com[#换成@]投诉。我们会在15个工作日内删除。 但烦请转载时请标明出处:“本文转载于『浮游电影网』,原文地址:https://www.fuyouu.com/22930.html

评论吧骚年!

发表你的见解   

昵称*

E-mail*(建议输入,以便收到博主回复的提示邮件)

验证码*

您可以使用eMule或eMule Mod(Windows)、aMule(Win、Linux、Mac)等软件下载eD2k链接。。
eMule收藏集(.emulecollection)文件是您选中的所有链接的列表文件。eMule可以直接下载它们。
按住SHIFT键选择可以选中多个选择框。
可用文件名和大小选择器来选择文件。
文件名选择器帮您根据文件名称或后缀来选择文件。不分大小写。
符号使用:
和:空格( )、+
不包含:-
或:|
转义:一对英文引号("");
匹配开头:^
匹配结尾:$
例如:
选中所有名称中包含有“eMule”或“0.49c”字眼,但不包含有“exe”字眼的:emule|0.49c -exe
选中所有名称的开头是“eMule”,结尾是“0.49c”的:^emule 0.49c$
选中所有名称中带有“eMule 0.49c”的(必须是“eMule 0.49c”,中间没有别的字符,不能是“eMule fake 0.49c”),需要转义:"emule 0.49c"
大小选择器帮您根据文件大小选择文件。