当前位置: 首页 >> 欧美电影 >> 泰坦尼克号[国英多音轨/简英字幕].Titanic.1997.BluRay.1080p.2Audio.DTS-HD.MA5.1.x265.10bit-ALT 21.31GB >> 正文

泰坦尼克号[国英多音轨/简英字幕].Titanic.1997.BluRay.1080p.2Audio.DTS-HD.MA5.1.x265.10bit-ALT 21.31GB

2022年12月23日 09:27:29     电影发布:来源于网络     电影分类:欧美电影     评论(0)    

◎标 题 泰坦尼克号

◎译 名 铁达尼号(港 / 台)

◎片 名 Titanic

◎年 代 1997

◎产 地 美国 / 墨西哥 / 澳大利亚 / 加拿大

◎类 别 剧情 / 爱情 / 灾难

◎语 言 英语 / 意大利语 / 德语 / 俄语

◎上映日期 1998-04-03(中国大陆) / 1997-11-01(东京电影节) / 1997-12-19(美国)

◎IMDb评分 7.9/10 (1172918人评价)

◎IMDb链接 https://www.imdb.com/title/tt0120338/

◎豆瓣评分 9.5/10 (2025520人评价)

◎豆瓣链接 https://movie.douban.com/subject/1292722/

◎片 长 194分钟

◎导 演 詹姆斯·卡梅隆 James Cameron

◎编 剧 詹姆斯·卡梅隆 James Cameron

◎演 员 莱昂纳多·迪卡普里奥 Leonardo DiCaprio

凯特·温丝莱特 Kate Winslet

比利·赞恩 Billy Zane

凯西·贝茨 Kathy Bates

弗兰西丝·费舍 Frances Fisher

格劳瑞亚·斯图尔特 Gloria Stuart

比尔·帕克斯顿 Bill Paxton

伯纳德·希尔 Bernard Hill

大卫·沃纳 David Warner

维克多·加博 Victor Garber

乔纳森·海德 Jonathan Hyde

苏茜·爱米斯 Suzy Amis

刘易斯·阿伯内西 Lewis Abernathy

尼古拉斯·卡斯柯恩 Nicholas Cascone

阿那托利·萨加洛维奇 Anatoly M. Sagalevitch

丹尼·努齐 Danny Nucci

杰森·贝瑞 Jason Barry

伊万·斯图尔特 Ewan Stewart

艾恩·格拉法德 Ioan Gruffudd

乔纳森·菲利普斯 Jonathan Phillips

马克·林赛·查普曼 Mark Lindsay Chapman

理查德·格拉翰 Richard Graham

保罗·布赖特威尔 Paul Brightwell

艾瑞克·布里登 Eric Braeden

夏洛特·查顿 Charlotte Chatton

博纳德·福克斯 Bernard Fox

迈克尔·英塞恩 Michael Ensign

法妮·布雷特 Fannie Brett

马丁·贾维斯 Martin Jarvis

罗莎琳·艾尔斯 Rosalind Ayres

罗切尔·罗斯 Rochelle Rose

乔纳森·伊万斯-琼斯 Jonathan Evans-Jones

西蒙·克雷恩 Simon Crane

爱德华德·弗莱彻 Edward Fletcher

斯科特·安德森 Scott Anderson

马丁·伊斯特 Martin East

克雷格·凯利 Craig Kelly

格雷戈里·库克 Gregory Cooke

利亚姆·图伊 Liam Tuohy

詹姆斯·兰开斯特 James Lancaster

艾尔莎·瑞雯 Elsa Raven

卢·帕尔特 Lew Palter

泰瑞·佛瑞斯塔 Terry Forrestal

凯文·德·拉·诺伊 Kevin De La Noy

詹姆斯·卡梅隆 James Cameron

竹内结子 Yûko Takeuchi

詹姆斯·霍纳 James Horner

姜广涛 Guangtao Jiang

罗恩·多纳基 Ron Donachie

佐佐木澄江 Sumie Sasaki

史蒂文·奎里 Steven Quale

詹妮特·戈德斯坦恩 Jenette Goldstein

林凡 Van Ling

Linda Kerns Linda Kerns

马丁·哈伯 Martin Hub

马丁·莱恩 Martin Laing

德里克·李 Derek Lea

保罗·赫伯特 Paul Herbert

艾利克斯·欧文斯-萨尔诺 Alex Owens-Sarno

Julene Renee Julene Renee

曲敬国 Jingguo Qu

刘之玲

詹姆斯·卡梅隆 James Cameron

乔恩·兰道 Jon Landau

Sharon Mann Sharon Mann

帕米拉·伊斯利 Pamela Easley

格兰特·希尔 Grant Hill

詹姆斯·霍纳 James Horner

席琳·狄翁 Céline Dion

拉塞尔·卡朋特 Russell Carpenter

詹姆斯·卡梅隆 James Cameron

康拉德·巴夫四世 Conrad Buff IV

理查德·哈里斯 Richard A. Harris

马里·芬恩 Mali Finn

迈克尔·福特 Michael Ford

马丁·莱恩 Martin Laing

德博拉·林恩·斯科特 Deborah Lynn Scott

格雷格·卡农 Greg Cannom

西安·格里格 Sian Grigg

波莉·恩肖 Polly Earnshaw

凯·乔治奥 Kay Georgiou

Betty Glasow Betty Glasow

Teresa Patterson Teresa Patterson

西蒙·汤普森 Simon Thompson

Erwin H. Kupitz Erwin H. Kupitz

乔恩·亨利·戈登 Jon Henry Gordon

文森佐·马斯特朗托尼奥 Vincenzo Mastrantonio

蒂娜·恩肖 Tina Earnshaw

史蒂文·奎里 Steven Quale

塞巴斯蒂安·席尔瓦 Sebastián Silva

Kristie Sills Kristie Sills

Kathleen 'Bo' Bobak Kathleen 'Bo' Bobak

克里斯托弗·埃文斯 Christopher Evans

曾利文彦 Fumihiko Sori

克莱格·巴朗 Craig Barron

罗伯特·莱加托 Robert Legato

林凡 Van Ling

杰克·莫多万 Jack Mongovan

肯尼斯·史密斯 Kenneth Smith

Chad Taylor Chad Taylor

约翰·布鲁诺 John Bruno

马克·贝克 Mat Beck

克里斯托弗·霍瓦斯 Christopher Horvath

安德鲁·R·琼斯 Andrew R. Jones

肖恩·安德鲁·法登 Sean Andrew Faden

马克·A·拉索夫 Mark A. Lasoff

丹·赖蒙 Dan Lemmon

Mark Tait Lewis Mark Tait Lewis

Charles Meredith Charles Meredith

丹尼·穆德特 Danny Mudgett

Marshall Richard Krasser Marshall Richard Krasser

迈克尔·坎弗 Michael Kanfer

Jennifer German Jennifer German

布莱恩·吉尔 Bryan Grill

克雷格·哈迈克 Craig Hammack

克拉斯·汉克 Claas Henke

理查德·E·霍兰德尔 Richard E. Hollander

尤尔·霍尔曼 Uel Hormann

肯尼思·琼斯 Kenneth Jones

埃里克·纳什 Erik Nash

罗科·帕西尼诺 Rocco Passionino

迪安·莱特 Dean Wright

山口千代 Keiji Yamaguchi

行弘进 Susumu Yukuhiro

Keith W. Smith Keith W. Smith

John Hart John Hart

乔伊斯·科克斯 Joyce Cox

David Weitzberg David Weitzberg

凯里·维尔加斯 Carey Villegas

David Prescott David Prescott

Eugene P. Rizzardi Eugene P. Rizzardi

Olivier Sarda Olivier Sarda

John E. Sasaki John E. Sasaki

罗伯特·斯科塔克 Robert Skotak

Sean Stanek Sean Stanek

克里斯·斯普林菲尔德 Chris Springfield

乔纳森·R.班塔 Johnathan R. Banta

克里斯·戴尔·康特 Chris Del Conte

Andrea D'Amico Andrea D'Amico

蒂姆·亚历山大 Tim Alexander

Jon Craig Jon Craig

乔恩·亚历山大 Jon Alexander

格拉迪·科菲 Grady Cofer

Camille Cellucci Camille Cellucci

Kirk Cadrette Kirk Cadrette

马修·E·巴特勒 Matthew E. Butler

Sonja Burchard Sonja Burchard

Karl Denham Karl Denham

杰米·迪克森 Jamie Dixon

克里斯托尔·道德 Crystal Dowd

科林·德罗布尼斯 Colin Drobnis

David Drzewiecki David Drzewiecki

奥·布里克 Ed Ulbrich

◎简 介

1912年4月10日,号称 “世界工业史上的奇迹”的豪华客轮泰坦尼克号开始了自己的处女航,从英国的南安普顿出发驶往美国纽约。富家少女罗丝(凯特•温丝莱特)与母亲及未婚夫卡尔坐上了头等舱;另一边,放荡不羁的少年画家杰克(莱昂纳多·迪卡普里奥)也在码头的一场赌博中赢得了下等舱的船票。

罗丝厌倦了上流社会虚伪的生活,不愿嫁给卡尔,打算投海自尽,被杰克救起。很快,美丽活泼的罗丝与英俊开朗的杰克相爱,杰克带罗丝参加下等舱的舞会、为她画像,二人的感情逐渐升温。

1912年4月14日,星期天晚上,一个风平浪静的夜晚。泰坦尼克号撞上了冰山,“永不沉没的”泰坦尼克号面临沉船的命运,罗丝和杰克刚萌芽的爱情也将经历生死的考验。

  1. ##### MediaInfo ######

  2. General

  3. Unique ID : 324631327437951126469634994295354259898 (0xF439B82D367AE9BBDA90FD4E9CF179BA)

  4. Complete name : Titanic.1997.BluRay.1080p.2Audio.DTS-HD.MA5.1.x265.10bit-ALT.mkv

  5. Format : Matroska

  6. Format version : Version 4

  7. File size : 21.3 GiB

  8. Duration : 3 h 14 min

  9. Overall bit rate mode : Variable

  10. Overall bit rate : 15.7 Mb/s

  11. Encoded date : UTC 2022-12-22 11:02:38

  12. Writing application : mkvmerge v49.0.0 ('Sick Of Losing Soulmates') 64-bit

  13. Writing library : libebml v1.4.0 + libmatroska v1.6.1


  14. Video

  15. ID : 1

  16. Format : HEVC

  17. Format/Info : High Efficiency Video Coding

  18. Format profile : Main [email protected]@High

  19. Codec ID : V_MPEGH/ISO/HEVC

  20. Duration : 3 h 14 min

  21. Bit rate : 10.5 Mb/s

  22. Width : 1 920 pixels

  23. Height : 818 pixels

  24. Display aspect ratio : 2.35:1

  25. Frame rate mode : Constant

  26. Frame rate : 23.976 (24000/1001) FPS

  27. Color space : YUV

  28. Chroma subsampling : 4:2:0

  29. Bit depth : 10 bits

  30. Bits/(Pixel*Frame) : 0.279

  31. Stream size : 14.3 GiB (67%)

  32. Title : HEVC, [email protected]@High, 24/1.001 fps @ 10496 kbps

  33. Writing library : x265 3.5+40-6064f96a6:[Windows][GCC 12.2.0][64 bit] 10bit

  34. Encoding settings : cpuid=1111039 / frame-threads=4 / numa-pools=16 / wpp / no-pmode / no-pme / no-psnr / no-ssim / log-level=2 / input-csp=1 / input-res=1920x818 / interlace=0 / total-frames=279697 / level-idc=51 / high-tier=1 / uhd-bd=0 / ref=5 / no-allow-non-conformance / no-repeat-headers / annexb / no-aud / no-eob / no-eos / no-hrd / info / hash=0 / no-temporal-layers / open-gop / min-keyint=24 / keyint=240 / gop-lookahead=0 / bframes=6 / b-adapt=2 / b-pyramid / bframe-bias=0 / rc-lookahead=40 / lookahead-slices=0 / scenecut=40 / no-hist-scenecut / radl=0 / no-splice / no-intra-refresh / ctu=32 / min-cu-size=8 / no-rect / no-amp / max-tu-size=32 / tu-inter-depth=3 / tu-intra-depth=3 / limit-tu=4 / rdoq-level=2 / dynamic-rd=0.00 / no-ssim-rd / signhide / no-tskip / nr-intra=0 / nr-inter=0 / no-constrained-intra / no-strong-intra-smoothing / max-merge=4 / limit-refs=1 / limit-modes / me=3 / subme=4 / merange=57 / temporal-mvp / no-frame-dup / no-hme / weightp / weightb / no-analyze-src-pics / deblock=-3:-3 / no-sao / no-sao-non-deblock / rd=6 / selective-sao=0 / no-early-skip / rskip / no-fast-intra / no-tskip-fast / no-cu-lossless / b-intra / no-splitrd-skip / rdpenalty=0 / psy-rd=2.00 / psy-rdoq=1.00 / no-rd-refine / no-lossless / cbqpoffs=-2 / crqpoffs=-2 / rc=crf / crf=18.5 / qcomp=0.65 / qpstep=4 / stats-write=0 / stats-read=0 / vbv-maxrate=80000 / vbv-bufsize=80000 / vbv-init=0.9 / min-vbv-fullness=50.0 / max-vbv-fullness=80.0 / crf-max=0.0 / crf-min=0.0 / ipratio=1.40 / pbratio=1.30 / aq-mode=2 / aq-strength=0.85 / cutree / zone-count=0 / no-strict-cbr / qg-size=32 / no-rc-grain / qpmax=69 / qpmin=0 / no-const-vbv / sar=1 / overscan=0 / videoformat=5 / range=0 / colorprim=1 / transfer=1 / colormatrix=1 / chromaloc=0 / display-window=0 / cll=0,0 / min-luma=0 / max-luma=1023 / log2-max-poc-lsb=8 / vui-timing-info / vui-hrd-info / slices=1 / no-opt-qp-pps / no-opt-ref-list-length-pps / no-multi-pass-opt-rps / scenecut-bias=0.05 / hist-threshold=0.03 / no-opt-cu-delta-qp / no-aq-motion / no-hdr10 / no-hdr10-opt / no-dhdr10-opt / no-idr-recovery-sei / analysis-reuse-level=0 / analysis-save-reuse-level=0 / analysis-load-reuse-level=0 / scale-factor=0 / refine-intra=0 / refine-inter=0 / refine-mv=1 / refine-ctu-distortion=0 / no-limit-sao / ctu-info=0 / no-lowpass-dct / refine-analysis-type=0 / copy-pic=1 / max-ausize-factor=1.0 / no-dynamic-refine / no-single-sei / no-hevc-aq / no-svt / no-field / qp-adaptation-range=1.00 / scenecut-aware-qp=0conformance-window-offsets / right=0 / bottom=0 / decoder-max-rate=0 / no-vbv-live-multi-pass

  35. Language : English

  36. Default : Yes

  37. Forced : No

  38. Color range : Limited

  39. Color primaries : BT.709

  40. Transfer characteristics : BT.709

  41. Matrix coefficients : BT.709


  42. Audio #1

  43. ID : 2

  44. Format : DTS XLL

  45. Format/Info : Digital Theater Systems

  46. Commercial name : DTS-HD Master Audio

  47. Codec ID : A_DTS

  48. Duration : 3 h 14 min

  49. Bit rate mode : Variable

  50. Bit rate : 3 898 kb/s

  51. Channel(s) : 6 channels

  52. Channel layout : C L R Ls Rs LFE

  53. Sampling rate : 48.0 kHz

  54. Frame rate : 93.750 FPS (512 SPF)

  55. Bit depth : 24 bits

  56. Compression mode : Lossless

  57. Stream size : 5.29 GiB (25%)

  58. Title : English DTS-HD Master Audio 5.1 @ 3898 kbps

  59. Language : English

  60. Default : Yes

  61. Forced : No


  62. Audio #2

  63. ID : 3

  64. Format : AC-3

  65. Format/Info : Audio Coding 3

  66. Commercial name : Dolby Digital

  67. Codec ID : A_AC3

  68. Duration : 3 h 14 min

  69. Bit rate mode : Constant

  70. Bit rate : 448 kb/s

  71. Channel(s) : 6 channels

  72. Channel layout : L R C LFE Ls Rs

  73. Sampling rate : 48.0 kHz

  74. Frame rate : 31.250 FPS (1536 SPF)

  75. Compression mode : Lossy

  76. Stream size : 623 MiB (3%)

  77. Title : Mandarin Dolby Digital Audio 5.1 @ 448 kbps

  78. Language : Chinese

  79. Service kind : Complete Main

  80. Default : No

  81. Forced : No


  82. Audio #3

  83. ID : 4

  84. Format : AC-3

  85. Format/Info : Audio Coding 3

  86. Commercial name : Dolby Digital

  87. Codec ID : A_AC3

  88. Duration : 3 h 14 min

  89. Bit rate mode : Constant

  90. Bit rate : 224 kb/s

  91. Channel(s) : 2 channels

  92. Channel layout : L R

  93. Sampling rate : 48.0 kHz

  94. Frame rate : 31.250 FPS (1536 SPF)

  95. Compression mode : Lossy

  96. Stream size : 312 MiB (1%)

  97. Title : English Dolby Digital Audio 1.0 @ 192 kbps Commentary 1

  98. Language : English

  99. Service kind : Complete Main

  100. Default : No

  101. Forced : No


  102. Audio #4

  103. ID : 5

  104. Format : AC-3

  105. Format/Info : Audio Coding 3

  106. Commercial name : Dolby Digital

  107. Codec ID : A_AC3

  108. Duration : 3 h 14 min

  109. Bit rate mode : Constant

  110. Bit rate : 224 kb/s

  111. Channel(s) : 2 channels

  112. Channel layout : L R

  113. Sampling rate : 48.0 kHz

  114. Frame rate : 31.250 FPS (1536 SPF)

  115. Compression mode : Lossy

  116. Stream size : 312 MiB (1%)

  117. Title : English Dolby Digital Audio 1.0 @ 192 kbps Commentary 2

  118. Language : English

  119. Service kind : Complete Main

  120. Default : No

  121. Forced : No


  122. Audio #5

  123. ID : 6

  124. Format : AC-3

  125. Format/Info : Audio Coding 3

  126. Commercial name : Dolby Digital

  127. Codec ID : A_AC3

  128. Duration : 3 h 14 min

  129. Bit rate mode : Constant

  130. Bit rate : 224 kb/s

  131. Channel(s) : 2 channels

  132. Channel layout : L R

  133. Sampling rate : 48.0 kHz

  134. Frame rate : 31.250 FPS (1536 SPF)

  135. Compression mode : Lossy

  136. Stream size : 312 MiB (1%)

  137. Title : English Dolby Digital Audio 1.0 @ 192 kbps Commentary 3

  138. Language : English

  139. Service kind : Complete Main

  140. Default : No

  141. Forced : No


  142. Text #1

  143. ID : 7

  144. Format : PGS

  145. Codec ID : S_HDMV/PGS

  146. Codec ID/Info : Picture based subtitle format used on BDs/HD-DVDs

  147. Duration : 3 h 12 min

  148. Bit rate : 12.9 kb/s

  149. Count of elements : 4199

  150. Stream size : 17.7 MiB (0%)

  151. Title : Eng/SUP

  152. Language : English

  153. Default : No

  154. Forced : No


  155. Text #2

  156. ID : 8

  157. Format : PGS

  158. Codec ID : S_HDMV/PGS

  159. Codec ID/Info : Picture based subtitle format used on BDs/HD-DVDs

  160. Duration : 3 h 13 min

  161. Bit rate : 18.8 kb/s

  162. Count of elements : 4210

  163. Stream size : 25.9 MiB (0%)

  164. Title : Chs/SUP 原盘简体

  165. Language : Chinese

  166. Default : Yes

  167. Forced : No


  168. Text #3

  169. ID : 9

  170. Format : PGS

  171. Codec ID : S_HDMV/PGS

  172. Codec ID/Info : Picture based subtitle format used on BDs/HD-DVDs

  173. Duration : 3 h 14 min

  174. Bit rate : 43.2 kb/s

  175. Count of elements : 6586

  176. Stream size : 60.0 MiB (0%)

  177. Title : Chs/SUP 原盘简体 Commentary 1

  178. Language : Chinese

  179. Default : No

  180. Forced : No


  181. Text #4

  182. ID : 10

  183. Format : PGS

  184. Codec ID : S_HDMV/PGS

  185. Codec ID/Info : Picture based subtitle format used on BDs/HD-DVDs

  186. Duration : 3 h 14 min

  187. Bit rate : 46.5 kb/s

  188. Count of elements : 7057

  189. Stream size : 64.6 MiB (0%)

  190. Title : Chs/SUP 原盘简体 Commentary 2

  191. Language : Chinese

  192. Default : No

  193. Forced : No


  194. Text #5

  195. ID : 11

  196. Format : PGS

  197. Codec ID : S_HDMV/PGS

  198. Codec ID/Info : Picture based subtitle format used on BDs/HD-DVDs

  199. Duration : 3 h 14 min

  200. Bit rate : 48.2 kb/s

  201. Count of elements : 7564

  202. Stream size : 67.0 MiB (0%)

  203. Title : Chs/SUP 原盘简体 Commentary 3

  204. Language : Chinese

  205. Default : No

  206. Forced : No


  207. Menu

  208. 00:00:00.000 : en:第 01 章

  209. 00:01:24.376 : en:第 02 章

  210. 00:04:39.988 : en:第 03 章

  211. 00:08:26.131 : en:第 04 章

  212. 00:10:46.771 : en:第 05 章

  213. 00:12:52.647 : en:第 06 章

  214. 00:16:52.428 : en:第 07 章

  215. 00:20:07.748 : en:第 08 章

  216. 00:23:38.876 : en:第 09 章

  217. 00:26:26.543 : en:第 10 章

  218. 00:29:03.366 : en:第 11 章

  219. 00:29:37.526 : en:第 12 章

  220. 00:34:59.931 : en:第 13 章

  221. 00:36:48.623 : en:第 14 章

  222. 00:42:59.160 : en:第 15 章

  223. 00:45:26.098 : en:第 16 章

  224. 00:47:11.620 : en:第 17 章

  225. 00:53:33.043 : en:第 18 章

  226. 00:56:47.988 : en:第 19 章

  227. 01:05:32.053 : en:第 20 章

  228. 01:10:19.965 : en:第 21 章

  229. 01:14:06.358 : en:第 22 章

  230. 01:16:10.691 : en:第 23 章

  231. 01:19:59.044 : en:第 24 章

  232. 01:22:50.507 : en:第 25 章

  233. 01:23:40.056 : en:第 26 章

  234. 01:27:57.647 : en:第 27 章

  235. 01:28:55.872 : en:第 28 章

  236. 01:32:28.292 : en:第 29 章

  237. 01:36:35.122 : en:第 30 章

  238. 01:44:17.167 : en:第 31 章

  239. 01:45:57.058 : en:第 32 章

  240. 01:47:34.865 : en:第 33 章

  241. 01:49:47.122 : en:第 34 章

  242. 01:51:57.418 : en:第 35 章

  243. 01:53:30.345 : en:第 36 章

  244. 01:54:57.849 : en:第 37 章

  245. 01:55:46.898 : en:第 38 章

  246. 01:57:29.250 : en:第 39 章

  247. 02:06:14.358 : en:第 40 章

  248. 02:08:25.989 : en:第 41 章

  249. 02:10:58.100 : en:第 42 章

  250. 02:15:18.568 : en:第 43 章

  251. 02:19:19.475 : en:第 44 章

  252. 02:21:00.576 : en:第 45 章

  253. 02:25:04.779 : en:第 46 章

  254. 02:27:04.440 : en:第 47 章

  255. 02:28:43.289 : en:第 48 章

  256. 02:29:32.713 : en:第 49 章

  257. 02:33:07.553 : en:第 50 章

  258. 02:36:28.378 : en:第 51 章

  259. 02:38:09.896 : en:第 52 章

  260. 02:40:10.683 : en:第 53 章

  261. 02:44:36.658 : en:第 54 章

  262. 02:47:24.826 : en:第 55 章

  263. 02:48:58.544 : en:第 56 章

  264. 02:51:45.628 : en:第 57 章

  265. 02:53:17.344 : en:第 58 章

  266. 02:57:29.513 : en:第 59 章

  267. 02:59:11.323 : en:第 60 章

  268. 03:01:05.270 : en:第 61 章

  269. 03:02:49.666 : en:第 62 章

  270. 03:04:33.895 : en:第 63 章

  271. 03:06:55.662 : en:第 64 章


复制代码



文件下载


除非特别注明,本文『泰坦尼克号[国英多音轨/简英字幕].Titanic.1997.BluRay.1080p.2Audio.DTS-HD.MA5.1.x265.10bit-ALT 21.31GB』来源于互联网机器人自动抓取,非本站原创。 浮游电影网不对本文拥有版权,如有侵犯,请联系邮箱:fuyouu#yandex.com[#换成@]投诉。我们会在15个工作日内删除。 但烦请转载时请标明出处:“本文转载于『浮游电影网』,原文地址:https://www.fuyouu.com/22929.html

评论吧骚年!

发表你的见解   

昵称*

E-mail*(建议输入,以便收到博主回复的提示邮件)

验证码*

您可以使用eMule或eMule Mod(Windows)、aMule(Win、Linux、Mac)等软件下载eD2k链接。。
eMule收藏集(.emulecollection)文件是您选中的所有链接的列表文件。eMule可以直接下载它们。
按住SHIFT键选择可以选中多个选择框。
可用文件名和大小选择器来选择文件。
文件名选择器帮您根据文件名称或后缀来选择文件。不分大小写。
符号使用:
和:空格( )、+
不包含:-
或:|
转义:一对英文引号("");
匹配开头:^
匹配结尾:$
例如:
选中所有名称中包含有“eMule”或“0.49c”字眼,但不包含有“exe”字眼的:emule|0.49c -exe
选中所有名称的开头是“eMule”,结尾是“0.49c”的:^emule 0.49c$
选中所有名称中带有“eMule 0.49c”的(必须是“eMule 0.49c”,中间没有别的字符,不能是“eMule fake 0.49c”),需要转义:"emule 0.49c"
大小选择器帮您根据文件大小选择文件。